<?xml version="1.0" standalone="no"?>
<!DOCTYPE svg PUBLIC "-//W3C//DTD SVG 1.1//EN" "http://www.w3.org/Graphics/SVG/1.1/DTD/svg11.dtd" >
<svg>
<metadata>
Created by FontForge 20090622 at Wed Oct  7 08:24:49 2015
 By deploy user
Copyright &#194;&#169; 2015 by Dino dos Santos &#38; Pedro Leal. All rights reserved.
</metadata>
<defs>
<font id="JulesColossal-Light" horiz-adv-x="290" >
  <font-face 
    font-family="Jules Colossal Light"
    font-weight="300"
    font-stretch="normal"
    units-per-em="1000"
    panose-1="0 0 4 0 0 0 0 0 0 0"
    ascent="750"
    descent="-250"
    x-height="500"
    cap-height="700"
    bbox="-51.1702 -250 1175 980"
    underline-thickness="50"
    underline-position="-50"
    unicode-range="U+0020-U+FB02"
  />
<missing-glyph horiz-adv-x="500" 
 />
    <glyph glyph-name="fi" unicode="fi" horiz-adv-x="510" 
d="M275 750q68 0 106.5 -39.5t38.5 -91.5q0 -18 -10.5 -28.5t-24.5 -10.5t-24.5 9.5t-10.5 23.5q0 15 17.5 31.5t17.5 27.5q0 33 -34.5 51.5t-75.5 18.5q-125 0 -125 -176v-66h105v-12h-105v-450q0 -20 5 -25t25 -5h40v-8h-190v8h40q20 0 25 5t5 25v450h-70v12h70v64
q0 95 50 140.5t125 45.5zM410 500v-462q0 -20 5 -25t25 -5h40v-8h-190v8h40q20 0 25 5t5 25v404q0 20 -6.5 27t-23.5 3l-40 -10v8z" />
    <glyph glyph-name="fl" unicode="fl" horiz-adv-x="515" 
d="M415 750v-712q0 -20 5.5 -25t24.5 -5h40v-8h-190v8h40q19 0 24.5 5t5.5 25v676q-34 28 -90 28q-125 0 -125 -176v-66h105v-12h-105v-450q0 -20 5 -25t25 -5h40v-8h-190v8h40q20 0 25 5t5 25v450h-70v12h70v64q0 95 50 140.5t125 45.5q54 0 92 -27z" />
    <glyph glyph-name="f_b" unicode="fb" horiz-adv-x="820" 
d="M580 510q94 0 144.5 -70.5t50.5 -189.5t-50.5 -189.5t-144.5 -70.5q-56 0 -103 43t-62 121v-154h-120v8h40q19 0 24.5 5t5.5 25v676q-34 28 -90 28q-125 0 -125 -176v-66h105v-12h-105v-450q0 -20 5 -25t25 -5h40v-8h-190v8h40q20 0 25 5t5 25v450h-70v12h70v64
q0 95 50 140.5t125 45.5q54 0 92 -27l48 27v-404q15 79 62 121.5t103 42.5zM580 -2q73 0 109 67.5t36 184.5t-36 184.5t-109 67.5t-119 -65t-46 -159v-56q0 -94 46 -159t119 -65z" />
    <glyph glyph-name="f_f" unicode="ff" horiz-adv-x="545" 
d="M485 750q32 0 53.5 -16t21.5 -34q0 -25 -25 -25t-25 25q0 4 2.5 13t2.5 14q0 15 -30 15q-39 0 -52 -28.5t-13 -87.5v-126h105v-12h-105v-450q0 -20 5 -25t25 -5h40v-8h-190v8h40q20 0 25 5t5 25v450h-220v-450q0 -20 5 -25t25 -5h40v-8h-190v8h40q20 0 25 5t5 25v450h-70
v12h70v64q0 95 50 140.5t125 45.5q77 0 117 -50q30 50 93 50zM370 500v104q0 54 18 89q-39 49 -113 49q-125 0 -125 -176v-66h220z" />
    <glyph glyph-name="f_f_b" unicode="ffb" horiz-adv-x="1090" 
d="M850 510q94 0 144.5 -70.5t50.5 -189.5t-50.5 -189.5t-144.5 -70.5q-56 0 -103 43t-62 121v-154h-120v8h40q19 0 24.5 5t5.5 25v676q-34 28 -90 28q-125 0 -125 -176v-66h105v-12h-105v-450q0 -20 5 -25t25 -5h40v-8h-190v8h40q20 0 25 5t5 25v450h-220v-450q0 -20 5 -25
t25 -5h40v-8h-190v8h40q20 0 25 5t5 25v450h-70v12h70v64q0 95 50 140.5t125 45.5q86 0 129 -64q47 64 141 64q54 0 92 -27l48 27v-404q15 79 62 121.5t103 42.5zM370 500v64q0 70 30 116q-43 62 -125 62q-125 0 -125 -176v-66h220zM850 -2q73 0 109 67.5t36 184.5
t-36 184.5t-109 67.5t-119 -65t-46 -159v-56q0 -94 46 -159t119 -65z" />
    <glyph glyph-name="f_f_h" unicode="ffh" horiz-adv-x="1125" 
d="M1095 8v-8h-190v8h40q19 0 24.5 5t5.5 25v297q0 167 -125 167q-73 0 -119 -64.5t-46 -155.5v-244q0 -20 5.5 -25t24.5 -5h40v-8h-190v8h40q19 0 24.5 5t5.5 25v676q-34 28 -90 28q-125 0 -125 -176v-66h105v-12h-105v-450q0 -20 5 -25t25 -5h40v-8h-190v8h40q20 0 25 5
t5 25v450h-220v-450q0 -20 5 -25t25 -5h40v-8h-190v8h40q20 0 25 5t5 25v450h-70v12h70v64q0 95 50 140.5t125 45.5q86 0 129 -64q47 64 141 64q54 0 92 -27l48 27v-400q16 77 62.5 118.5t102.5 41.5q86 0 130.5 -47t44.5 -128v-297q0 -20 5.5 -25t24.5 -5h40zM370 500v64
q0 70 30 116q-43 62 -125 62q-125 0 -125 -176v-66h220z" />
    <glyph glyph-name="f_f_i" unicode="ffi" horiz-adv-x="780" 
d="M545 742q-125 0 -125 -176v-66h105v-12h-105v-450q0 -20 5 -25t25 -5h40v-8h-190v8h40q20 0 25 5t5 25v450h-220v-450q0 -20 5 -25t25 -5h40v-8h-190v8h40q20 0 25 5t5 25v450h-70v12h70v64q0 95 50 140.5t125 45.5q86 0 129 -64q47 64 141 64q68 0 106.5 -39.5
t38.5 -91.5q0 -18 -10.5 -28.5t-24.5 -10.5t-24.5 9.5t-10.5 23.5q0 15 17.5 31.5t17.5 27.5q0 33 -34.5 51.5t-75.5 18.5zM370 500v64q0 70 30 116q-43 62 -125 62q-125 0 -125 -176v-66h220zM750 8v-8h-190v8h40q20 0 25 5t5 25v404q0 20 -6.5 27t-23.5 3l-40 -10v8
l120 30v-462q0 -20 5 -25t25 -5h40z" />
    <glyph glyph-name="f_f_j" unicode="ffj" horiz-adv-x="760" 
d="M300 8h40q20 0 25 5t5 25v450h-220v-450q0 -20 5 -25t25 -5h40v-8h-190v8h40q20 0 25 5t5 25v450h-70v12h70v64q0 95 50 140.5t125 45.5q86 0 129 -64q47 64 141 64q68 0 106.5 -39.5t38.5 -91.5q0 -18 -10.5 -28.5t-24.5 -10.5t-24.5 9.5t-10.5 23.5q0 15 17.5 31.5
t17.5 27.5q0 33 -34.5 51.5t-75.5 18.5q-125 0 -125 -176v-66h105v-12h-105v-450q0 -20 5 -25t25 -5h40v-8h-190v8zM370 500v64q0 70 30 116q-43 62 -125 62q-125 0 -125 -176v-66h220zM560 470l120 30v-604q0 -70 -31.5 -108t-85.5 -38q-37 0 -60 15.5t-23 34.5q0 25 25 25
t25 -25q0 -5 -2.5 -13.5t-2.5 -12.5q0 -16 38 -16q39 0 53 29t14 87v568q0 20 -6.5 27t-23.5 3l-40 -10v8z" />
    <glyph glyph-name="f_f_l" unicode="ffl" horiz-adv-x="785" 
d="M755 8v-8h-190v8h40q19 0 24.5 5t5.5 25v676q-34 28 -90 28q-125 0 -125 -176v-66h105v-12h-105v-450q0 -20 5 -25t25 -5h40v-8h-190v8h40q20 0 25 5t5 25v450h-220v-450q0 -20 5 -25t25 -5h40v-8h-190v8h40q20 0 25 5t5 25v450h-70v12h70v64q0 95 50 140.5t125 45.5
q86 0 129 -64q47 64 141 64q54 0 92 -27l48 27v-712q0 -20 5.5 -25t24.5 -5h40zM370 500v64q0 70 30 116q-43 62 -125 62q-125 0 -125 -176v-66h220z" />
    <glyph glyph-name="f_h" unicode="fh" horiz-adv-x="855" 
d="M825 0h-190v8h40q19 0 24.5 5t5.5 25v297q0 167 -125 167q-73 0 -119 -64.5t-46 -155.5v-244q0 -20 5.5 -25t24.5 -5h40v-8h-190v8h40q19 0 24.5 5t5.5 25v676q-34 28 -90 28q-125 0 -125 -176v-66h105v-12h-105v-450q0 -20 5 -25t25 -5h40v-8h-190v8h40q20 0 25 5t5 25
v450h-70v12h70v64q0 95 50 140.5t125 45.5q54 0 92 -27l48 27v-400q16 77 62.5 118.5t102.5 41.5q86 0 130.5 -47t44.5 -128v-297q0 -20 5.5 -25t24.5 -5h40v-8z" />
    <glyph glyph-name="f_j" unicode="fj" horiz-adv-x="490" 
d="M275 750q68 0 106.5 -39.5t38.5 -91.5q0 -18 -10.5 -28.5t-24.5 -10.5t-24.5 9.5t-10.5 23.5q0 15 17.5 31.5t17.5 27.5q0 33 -34.5 51.5t-75.5 18.5q-125 0 -125 -176v-66h105v-12h-105v-450q0 -20 5 -25t25 -5h40v-8h-190v8h40q20 0 25 5t5 25v450h-70v12h70v64
q0 95 50 140.5t125 45.5zM410 500v-604q0 -70 -31.5 -108t-85.5 -38q-37 0 -60 15.5t-23 34.5q0 25 25 25t25 -25q0 -5 -2.5 -13.5t-2.5 -12.5q0 -16 38 -16q39 0 53 29t14 87v568q0 20 -6.5 27t-23.5 3l-40 -10v8z" />
    <glyph glyph-name=".notdef" horiz-adv-x="500" 
 />
    <glyph glyph-name=".null" horiz-adv-x="0" 
 />
    <glyph glyph-name="nonmarkingreturn" horiz-adv-x="333" 
 />
    <glyph glyph-name="space" unicode=" " horiz-adv-x="240" 
 />
    <glyph glyph-name="exclam" unicode="!" 
d="M145 750q13 0 21.5 -8.5t8.5 -21.5q0 -9 -13 -226.5t-13 -323.5h-8q0 106 -13 323.5t-13 226.5q0 13 8 21.5t22 8.5zM145 50q13 0 21.5 -8.5t8.5 -21.5q0 -14 -8.5 -22t-21.5 -8q-30 0 -30 30q0 13 8 21.5t22 8.5z" />
    <glyph glyph-name="quotedbl" unicode="&#x22;" 
d="M90 710q12 0 21 -8.5t9 -21.5q0 -16 -7 -49l-19 -91h-8l-18 91q-8 37 -8 49q0 13 9 21.5t21 8.5zM200 710q12 0 21 -8.5t9 -21.5q0 -16 -7 -49l-19 -91h-8l-18 91q-8 37 -8 49q0 13 9 21.5t21 8.5z" />
    <glyph glyph-name="numbersign" unicode="#" horiz-adv-x="510" 
d="M342 323l-32 -148h150v-12h-152l-35 -163h-13l35 163h-117l-35 -163h-13l35 163h-115v12h117l32 148h-149v12h152l35 165h13l-35 -165h117l35 165h13l-35 -165h115v-12h-118zM329 323h-117l-32 -148h117z" />
    <glyph glyph-name="dollar" unicode="$" horiz-adv-x="550" 
d="M490 180q0 -81 -58.5 -135t-157.5 -55l-2 -80h-12l2 80q-51 1 -91.5 17.5t-62.5 32t-29 15.5q-11 0 -11 -15v-40h-8v175h8l2 -10q32 -163 192 -167l8 348q-40 20 -57.5 29.5t-48.5 30.5t-45.5 38.5t-26.5 45.5t-12 60q0 69 54.5 114.5t143.5 45.5l2 80h12l-2 -80
q37 -2 70 -18.5t53.5 -31.5t28.5 -15q11 0 11 15v40h8v-175h-8l-2 10q-16 80 -58 121.5t-103 45.5l-7 -308q100 -50 132 -73q75 -57 75 -141zM125 574q0 -61 37.5 -99.5t108.5 -74.5l7 302q-75 0 -114 -34.5t-39 -93.5zM282 340l-8 -342q80 1 125.5 40t45.5 118
q0 35 -12.5 63t-38.5 50.5t-50 37t-62 33.5z" />
    <glyph glyph-name="percent" unicode="%" horiz-adv-x="715" 
d="M206 700q73 0 114.5 -50.5t41.5 -129.5q0 -80 -41.5 -130t-114.5 -50t-114.5 50t-41.5 130q0 79 41.5 129.5t114.5 50.5zM211 0h-13l307 700h13zM206 696q-105 0 -105 -176t105 -176t105 176t-105 176zM509 360q73 0 114.5 -50.5t41.5 -129.5q0 -80 -41.5 -130
t-114.5 -50t-114.5 50t-41.5 130q0 79 41.5 129.5t114.5 50.5zM509 356q-105 0 -105 -176t105 -176t105 176t-105 176z" />
    <glyph glyph-name="ampersand" unicode="&#x26;" horiz-adv-x="680" 
d="M640 347h-58q-19 0 -24.5 -5.5t-5.5 -24.5q0 -144 -55 -225l36 -54q20 -30 61 -30h21v-8h-120l-34 51q-68 -61 -187 -61q-69 0 -117 29t-67.5 68.5t-19.5 82.5q0 77 43.5 126t122.5 94q-57 88 -57 166q0 69 43.5 111.5t116.5 42.5q51 0 81 -30t30 -76q0 -36 -12.5 -65
t-39 -53t-50 -40t-63.5 -38l207 -309q52 79 52 218q0 19 -5 24.5t-25 5.5h-68v8h194v-8zM222 589q0 -84 59 -174q39 22 62 37.5t49 38.5t38 51t12 62q0 44 -28.5 71t-74.5 27q-59 0 -88 -31.5t-29 -81.5zM274 -2q117 0 183 60l-217 325q-77 -44 -119.5 -91.5t-42.5 -121.5
q0 -68 51 -120t145 -52z" />
    <glyph glyph-name="quotesingle" unicode="'" horiz-adv-x="180" 
d="M90 710q12 0 21 -8.5t9 -21.5q0 -16 -7 -49l-19 -91h-8l-18 91q-8 37 -8 49q0 13 9 21.5t21 8.5z" />
    <glyph glyph-name="parenleft" unicode="(" horiz-adv-x="305" 
d="M247 790h8q-135 -144 -135 -440t135 -440h-8q-82 88 -129.5 192t-47.5 248t47.5 248t129.5 192z" />
    <glyph glyph-name="parenright" unicode=")" horiz-adv-x="305" 
d="M50 790h8q82 -88 129.5 -192t47.5 -248t-47.5 -248t-129.5 -192h-8q135 144 135 440t-135 440z" />
    <glyph glyph-name="asterisk" unicode="*" horiz-adv-x="410" 
d="M205 710q13 0 21.5 -8.5t8.5 -21.5q0 -17 -12.5 -57t-13.5 -65q22 14 43.5 36.5t37 36.5t30.5 14q13 0 21 -9.5t8 -20.5q0 -13 -10 -21.5t-21 -12t-33 -8.5q-43 -8 -71 -23q28 -15 71 -23q22 -4 33.5 -7.5t21 -12.5t9.5 -22q0 -11 -8 -20.5t-21 -9.5q-15 0 -30.5 14
t-37 36.5t-43.5 36.5q1 -25 13.5 -65t12.5 -57q0 -13 -8.5 -21.5t-21.5 -8.5t-21.5 8.5t-8.5 21.5q0 17 12.5 57t13.5 65q-22 -14 -43.5 -36.5t-37 -36.5t-29.5 -14q-13 0 -21.5 9.5t-8.5 20.5q0 18 15.5 26.5t46.5 15.5q43 7 74 23q-29 15 -74 24q-31 6 -46.5 14.5
t-15.5 26.5q0 11 8.5 20.5t21.5 9.5q14 0 29.5 -14t37 -36.5t43.5 -36.5q-1 25 -13.5 65t-12.5 57q0 13 8.5 21.5t21.5 8.5z" />
    <glyph glyph-name="plus" unicode="+" horiz-adv-x="470" 
d="M420 293h-179v-179h-12v179h-179v12h179v179h12v-179h179v-12z" />
    <glyph glyph-name="comma" unicode="," horiz-adv-x="180" 
d="M90 50q30 0 30 -45q0 -81 -57 -125l-5 5q21 16 34.5 40.5t13.5 44.5t-18 20q-12 0 -20 8.5t-8 21.5t8 21.5t22 8.5z" />
    <glyph glyph-name="hyphen" unicode="-" horiz-adv-x="390" 
d="M340 243h-290v12h290v-12z" />
    <glyph glyph-name="period" unicode="." horiz-adv-x="180" 
d="M90 50q13 0 21.5 -8.5t8.5 -21.5q0 -14 -8 -22t-22 -8q-30 0 -30 30q0 13 8 21.5t22 8.5z" />
    <glyph glyph-name="slash" unicode="/" horiz-adv-x="480" 
d="M93 0h-13l307 700h13z" />
    <glyph glyph-name="zero" unicode="0" horiz-adv-x="650" 
d="M325 710q86 0 144.5 -50t84.5 -129t26 -181q0 -159 -64 -259.5t-191 -100.5t-191 100.5t-64 259.5q0 102 26 181t84.5 129t144.5 50zM325 702q-58 0 -99.5 -29t-63.5 -80.5t-32 -111t-10 -131.5q0 -73 10 -132.5t32 -111t63.5 -80t99.5 -28.5t99.5 28.5t63.5 80t32 111
t10 132.5q0 72 -10 131.5t-32 111t-63.5 80.5t-99.5 29z" />
    <glyph glyph-name="one" unicode="1" horiz-adv-x="370" 
d="M210 710v-672q0 -20 5 -25t25 -5h80v-8h-270v8h80q20 0 25 5t5 25v607q0 14 -5.5 19.5t-23.5 2.5q-32 -5 -81 -5v8q125 0 152 40h8z" />
    <glyph glyph-name="two" unicode="2" horiz-adv-x="550" 
d="M255 710q97 0 156 -51.5t59 -151.5q0 -89 -69.5 -184.5t-238.5 -234.5l-46 -38h246q62 0 86 15t24 69v30h8v-164h-430v8l108 87q109 88 167.5 160.5t76.5 127.5t18 127q0 88 -42 140t-123 52q-40 0 -68 -10.5t-40.5 -28t-17 -32.5t-4.5 -30v-6q0 -25 -25 -25t-25 25
q0 40 54 77.5t126 37.5z" />
    <glyph glyph-name="three" unicode="3" horiz-adv-x="565" 
d="M255 710q96 0 155.5 -42.5t59.5 -120.5t-64.5 -126t-152.5 -59q42 -3 82.5 -15t77.5 -33.5t59.5 -57.5t22.5 -81q0 -93 -68 -139t-172 -46q-79 0 -137 37.5t-58 77.5q0 25 25 25t25 -25v-6q0 -15 5.5 -30t20 -32.5t45 -28t74.5 -10.5q190 0 190 172q0 55 -22.5 94
t-60.5 58t-76 27.5t-80 8.5q-13 -1 -26.5 -3.5t-19.5 -2.5q-13 0 -13 10t13 10q6 0 19.5 -2.5t26.5 -3.5q94 2 154 44.5t60 134.5q0 67 -43 112t-122 45q-40 0 -68 -11t-40.5 -28.5t-17 -32.5t-4.5 -30v-5q0 -25 -25 -25t-25 25q0 40 54 77.5t126 37.5z" />
    <glyph glyph-name="four" unicode="4" horiz-adv-x="570" 
d="M410 188v-150q0 -20 5 -25t25 -5h80v-8h-270v8h80q20 0 25 5t5 25v150h-330v8l372 514h8v-514h110v-8h-110zM360 196v443l-320 -443h320z" />
    <glyph glyph-name="five" unicode="5" horiz-adv-x="560" 
d="M266 410q103 0 163.5 -54.5t60.5 -155.5q0 -103 -66.5 -156.5t-168.5 -53.5q-79 0 -137 37.5t-58 77.5q0 25 25 25t25 -25v-6q0 -15 5.5 -30t20 -32.5t45 -28t74.5 -10.5q97 0 141 55t44 147q0 103 -47 152.5t-127 49.5q-81 0 -154 -57h-8l26 355q40 0 143 -17.5
t140 -17.5q49 0 49 55h8q0 -90 -118 -90q-36 0 -111.5 10t-105.5 10l-22 -292q74 52 153 52z" />
    <glyph glyph-name="six" unicode="6" horiz-adv-x="590" 
d="M297 425q103 0 163 -54.5t60 -161.5q0 -98 -63 -158.5t-157 -60.5q-80 0 -133.5 45.5t-75 113t-21.5 151.5q0 80 14 150t42.5 130t80 95t119.5 35q72 0 126 -37.5t54 -77.5q0 -25 -25 -25t-25 25v5q0 15 -4.5 30t-16.5 32.5t-40.5 28.5t-68.5 11q-43 0 -77.5 -18
t-56 -49.5t-36.5 -66.5t-22 -77.5t-10 -73t-4 -61.5q26 21 42.5 32t54.5 24t80 13zM300 -2q71 0 120.5 57.5t49.5 151.5q0 210 -173 210q-41 0 -78.5 -13.5t-55.5 -25.5t-43 -33v-5q0 -160 43.5 -251t136.5 -91z" />
    <glyph glyph-name="seven" unicode="7" horiz-adv-x="550" 
d="M501 710h9q-27 -61 -79 -146.5l-88 -147t-65 -164t-29 -220.5q0 -42 -25 -42t-25 39q0 81 38 184.5t83 180.5l96 160.5t64 111.5q-43 -46 -112 -46q-49 0 -128 20t-108 20q-43 0 -63.5 -23t-20.5 -51v-33h-8v147h8v-85q6 46 44 70.5t93 24.5q41 0 128 -27.5t125 -27.5
q22 0 36 12t27 43z" />
    <glyph glyph-name="eight" unicode="8" horiz-adv-x="590" 
d="M326 372q50 -26 73 -39t57.5 -39.5t49 -56.5t14.5 -67q0 -79 -58.5 -129.5t-166.5 -50.5q-110 0 -167.5 47t-57.5 123q0 64 53.5 115t125.5 84q-74 39 -114 81t-40 107q0 68 51.5 115.5t148.5 47.5q95 0 147.5 -45t52.5 -115q0 -58 -42 -101t-127 -77zM145 563
q0 -34 13 -62t41 -51t53 -38t66 -36q68 29 97.5 70t29.5 104q0 76 -46.5 114t-103.5 38q-32 0 -64.5 -12.5t-59 -45.5t-26.5 -81zM295 -2q93 0 134 46t41 111q0 19 -5.5 37t-13 31t-23 28t-26.5 24t-34 22l-34.5 19.5t-38.5 20t-38 18.5q-33 -19 -50.5 -31t-41 -35.5
t-34.5 -55t-11 -73.5q0 -71 41 -116.5t134 -45.5z" />
    <glyph glyph-name="nine" unicode="9" horiz-adv-x="590" 
d="M290 710q80 0 133.5 -45.5t75 -113t21.5 -151.5q0 -80 -14 -150t-42.5 -130t-80 -95t-119.5 -35q-72 0 -126 37.5t-54 77.5q0 25 25 25t25 -25v-6q0 -15 4.5 -30t17 -32.5t40.5 -28t68 -10.5q52 0 91 27t60 65t34 90t16.5 89t4.5 76q-25 -20 -42 -32t-55 -25t-80 -13
q-103 0 -163 54.5t-60 161.5q0 98 63 158.5t157 60.5zM293 283q41 0 78.5 13.5t55.5 25.5t43 33v5q0 160 -43.5 251t-136.5 91q-71 0 -120.5 -57.5t-49.5 -151.5q0 -210 173 -210z" />
    <glyph glyph-name="colon" unicode=":" horiz-adv-x="180" 
d="M90 320q13 0 21.5 -8.5t8.5 -21.5q0 -14 -8 -22t-22 -8q-30 0 -30 30q0 13 8 21.5t22 8.5zM90 50q13 0 21.5 -8.5t8.5 -21.5q0 -14 -8 -22t-22 -8q-30 0 -30 30q0 13 8 21.5t22 8.5z" />
    <glyph glyph-name="semicolon" unicode=";" horiz-adv-x="180" 
d="M90 320q13 0 21.5 -8.5t8.5 -21.5q0 -14 -8 -22t-22 -8q-30 0 -30 30q0 13 8 21.5t22 8.5zM90 50q30 0 30 -45q0 -81 -57 -125l-5 5q21 16 34.5 40.5t13.5 44.5t-18 20q-12 0 -20 8.5t-8 21.5t8 21.5t22 8.5z" />
    <glyph glyph-name="less" unicode="&#x3c;" horiz-adv-x="470" 
d="M420 373l-348 -74l348 -74v-12l-370 80v12l370 80v-12z" />
    <glyph glyph-name="equal" unicode="=" horiz-adv-x="470" 
d="M420 363h-370v12h370v-12zM420 203h-370v12h370v-12z" />
    <glyph glyph-name="greater" unicode="&#x3e;" horiz-adv-x="470" 
d="M420 305v-12l-370 -80v12l348 74l-348 74v12z" />
    <glyph glyph-name="question" unicode="?" horiz-adv-x="505" 
d="M230 750q95 0 150 -49.5t55 -143.5q0 -54 -25 -99.5t-61 -77l-72 -61.5t-61 -67.5t-25 -81.5h-8q0 39 21 77.5t50.5 70.5l59 66.5t50.5 80t21 95.5q0 83 -38 132.5t-117 49.5q-40 0 -69.5 -11t-44 -28t-20.5 -32.5t-6 -30.5v-5q0 -25 -25 -25t-25 25q0 39 58.5 77
t131.5 38zM190 50q13 0 21.5 -8.5t8.5 -21.5q0 -14 -8 -22t-22 -8q-30 0 -30 30q0 13 8 21.5t22 8.5z" />
    <glyph glyph-name="at" unicode="@" horiz-adv-x="870" 
d="M454 652q154 0 260 -91.5t106 -234.5q0 -62 -16 -111t-40.5 -78.5t-56 -48.5t-59.5 -26t-54 -7q-46 0 -76.5 21t-30.5 55q0 14 7 31q-61 -92 -138 -92q-49 0 -75 26.5t-26 73.5q0 58 34.5 125.5t95 116.5t125.5 49q40 0 60 -22t20 -53q0 -15 -3 -22l42 89h38l-139 -293
q-9 -23 -9 -36q0 -27 22 -43.5t57 -16.5q34 0 68.5 13t68.5 41t55.5 82t21.5 126q0 140 -103 229t-255 89q-172 0 -284 -110t-112 -281q0 -157 102 -261t259 -104v-8q-161 0 -265 106t-104 267q0 174 114.5 286.5t289.5 112.5zM510 454q-75 0 -148 -104t-73 -201
q0 -33 17 -52.5t50 -19.5q46 0 88.5 37t74.5 106l49 102q14 29 14 64q0 29 -18.5 48.5t-53.5 19.5z" />
    <glyph glyph-name="A" unicode="A" horiz-adv-x="710" 
d="M705 8v-8h-200v8h53q16 0 19 7t-4 23l-82 195h-325l-76 -193q-12 -32 15 -32h60v-8h-160v8h35q20 0 26.5 4.5t14.5 25.5l261 667h8l278 -667q8 -19 17 -24.5t29 -5.5h31zM488 241l-165 392l-154 -392h319z" />
    <glyph glyph-name="B" unicode="B" horiz-adv-x="630" 
d="M385 364q86 -11 135.5 -59.5t49.5 -124.5q0 -81 -61.5 -130.5t-158.5 -49.5h-300v8h40q20 0 25 5t5 25v624q0 20 -5 25t-25 5h-40v8h250q107 0 163.5 -46.5t56.5 -125.5q0 -61 -38.5 -106t-96.5 -58zM170 692v-326h165q64 0 99.5 35t35.5 127q0 88 -43.5 126t-126.5 38
h-130zM170 8h180q72 0 121 41t49 131q0 94 -48 136t-127 42h-175v-350z" />
    <glyph glyph-name="C" unicode="C" horiz-adv-x="740" 
d="M420 710q46 0 89.5 -10t68.5 -22.5l45.5 -22.5t27.5 -10q11 0 11 15v40h8v-175h-8l-2 10q-34 167 -240 167q-126 0 -213 -100.5t-87 -251.5t87 -251.5t213 -100.5q206 0 240 167l2 10h8v-175h-8v40q0 15 -11 15q-7 0 -27.5 -10l-45.5 -22.5t-68.5 -22.5t-89.5 -10
q-147 0 -248.5 102.5t-101.5 257.5t101.5 257.5t248.5 102.5z" />
    <glyph glyph-name="D" unicode="D" horiz-adv-x="770" 
d="M50 700h300q148 0 249 -98t101 -252t-101 -252t-249 -98h-300v8h40q20 0 25 5t5 25v624q0 20 -5 25t-25 5h-40v8zM350 692h-150q-20 0 -25 -5t-5 -25v-624q0 -20 5 -25t25 -5h150q127 0 213.5 96t86.5 246t-86.5 246t-213.5 96z" />
    <glyph glyph-name="E" unicode="E" horiz-adv-x="645" 
d="M575 164v-164h-525v8h40q20 0 25 5t5 25v624q0 20 -5 25t-25 5h-40v8h500v-164h-8v30q0 126 -106 126h-236q-20 0 -25 -5t-5 -25v-300h166q106 0 106 88v30h8v-244h-8v30q0 88 -106 88h-166v-316q0 -20 5 -25t25 -5h261q106 0 106 126v30h8z" />
    <glyph glyph-name="F" unicode="F" horiz-adv-x="600" 
d="M550 536h-8v30q0 126 -106 126h-236q-20 0 -25 -5t-5 -25v-300h166q53 0 79.5 23t26.5 65v30h8v-244h-8v30q0 42 -26.5 65t-79.5 23h-166v-316q0 -20 5 -25t25 -5h40v-8h-190v8h40q20 0 25 5t5 25v624q0 20 -5 25t-25 5h-40v8h500v-164z" />
    <glyph glyph-name="G" unicode="G" horiz-adv-x="820" 
d="M420 710q46 0 89.5 -10t68.5 -22.5l45.5 -22.5t27.5 -10q11 0 11 15v40h8v-175h-8l-2 10q-34 167 -240 167q-126 0 -213 -100.5t-87 -251.5t87 -251.5t213 -100.5q113 0 171.5 50.5t58.5 161.5v102q0 20 -5 25t-25 5h-40v8h190v-8h-40q-20 0 -25 -5t-5 -25v-102
q0 -93 -77.5 -156.5t-202.5 -63.5q-147 0 -248.5 102.5t-101.5 257.5t101.5 257.5t248.5 102.5z" />
    <glyph glyph-name="H" unicode="H" horiz-adv-x="800" 
d="M750 692h-40q-20 0 -25 -5t-5 -25v-624q0 -20 5 -25t25 -5h40v-8h-190v8h40q20 0 25 5t5 25v320h-460v-320q0 -20 5 -25t25 -5h40v-8h-190v8h40q20 0 25 5t5 25v624q0 20 -5 25t-25 5h-40v8h190v-8h-40q-20 0 -25 -5t-5 -25v-296h460v296q0 20 -5 25t-25 5h-40v8h190v-8z
" />
    <glyph glyph-name="I" unicode="I" 
d="M240 692h-40q-20 0 -25 -5t-5 -25v-624q0 -20 5 -25t25 -5h40v-8h-190v8h40q20 0 25 5t5 25v624q0 20 -5 25t-25 5h-40v8h190v-8z" />
    <glyph glyph-name="J" unicode="J" horiz-adv-x="365" 
d="M320 692h-40q-20 0 -25 -5t-5 -25v-476q0 -103 -37 -149.5t-98 -46.5q-45 0 -70 23.5t-25 46.5q0 25 25 25t25 -25q0 -5 -2.5 -15t-2.5 -15q0 -32 50 -32q45 0 65 38.5t20 127.5v498q0 20 -5 25t-25 5h-40v8h190v-8z" />
    <glyph glyph-name="K" unicode="K" horiz-adv-x="655" 
d="M240 692h-40q-20 0 -25 -5t-5 -25v-624q0 -20 5 -25t25 -5h40v-8h-190v8h40q20 0 25 5t5 25v624q0 20 -5 25t-25 5h-40v8h190v-8zM600 692h-44q-31 0 -60 -30l-280 -291l339 -333q18 -18 28 -24t28 -6h39v-8h-235v8h55q18 0 23 8t-8 22l-310 303l309 321q11 13 5.5 21.5
t-20.5 8.5h-69v8h200v-8z" />
    <glyph glyph-name="L" unicode="L" horiz-adv-x="580" 
d="M240 692h-40q-20 0 -25 -5t-5 -25v-624q0 -20 5 -25t25 -5h216q106 0 106 126v30h8v-164h-480v8h40q20 0 25 5t5 25v624q0 20 -5 25t-25 5h-40v8h190v-8z" />
    <glyph glyph-name="M" unicode="M" horiz-adv-x="840" 
d="M790 692h-40q-20 0 -25 -5t-5 -25v-624q0 -20 5 -25t25 -5h40v-8h-190v8h40q20 0 25 5t5 25v637l-263 -675h-9l-282 671v-633q0 -20 5 -25t25 -5h38v-8h-144v8h38q20 0 25 5t5 25v624q0 20 -5 25t-25 5h-38v8h116l267 -635l249 635h118v-8z" />
    <glyph glyph-name="N" unicode="N" horiz-adv-x="730" 
d="M690 692h-38q-20 -1 -25 -6t-5 -24v-663l-8 1l-498 667v-629q0 -20 5 -25t25 -5h40v-8h-146v8h38q20 0 25 5t5 25v624q0 20 -5 25t-25 5h-38v8h116l458 -620v582q0 20 -5 25t-25 5h-38v8h144v-8z" />
    <glyph glyph-name="O" unicode="O" horiz-adv-x="840" 
d="M420 710q147 0 248.5 -102.5t101.5 -257.5t-101.5 -257.5t-248.5 -102.5t-248.5 102.5t-101.5 257.5t101.5 257.5t248.5 102.5zM420 702q-126 0 -213 -100.5t-87 -251.5t87 -251.5t213 -100.5t213 100.5t87 251.5t-87 251.5t-213 100.5z" />
    <glyph glyph-name="P" unicode="P" horiz-adv-x="610" 
d="M50 700h275q113 0 169 -51.5t56 -138.5t-56 -139.5t-169 -52.5h-155v-280q0 -20 5 -25t25 -5h40v-8h-190v8h40q20 0 25 5t5 25v624q0 20 -5 25t-25 5h-40v8zM170 692v-366h155q88 0 131.5 44t43.5 140t-43.5 139t-131.5 43h-155z" />
    <glyph glyph-name="Q" unicode="Q" horiz-adv-x="840" 
d="M461 -8q46 -9 84.5 -32t63 -49l46 -50.5t45.5 -40.5t50 -16q8 0 20 4v-8q-25 -10 -55 -10q-34 0 -65 20.5t-55.5 50l-49.5 59t-57 50t-68 20.5q-147 0 -248.5 102.5t-101.5 257.5t101.5 257.5t248.5 102.5t248.5 -102.5t101.5 -257.5q0 -143 -88 -243t-221 -115zM120 350
q0 -151 87 -251.5t213 -100.5t213 100.5t87 251.5t-87 251.5t-213 100.5t-213 -100.5t-87 -251.5z" />
    <glyph glyph-name="R" unicode="R" horiz-adv-x="680" 
d="M631 1q18 0 44 7v-8q-42 -10 -64 -10q-59 0 -88 42t-54 139q-22 83 -55.5 115t-88.5 32h-155v-280q0 -20 5 -25t25 -5h40v-8h-190v8h40q20 0 25 5t5 25v624q0 20 -5 25t-25 5h-40v8h275q113 0 169 -51.5t56 -138.5q0 -76 -43.5 -126.5t-130.5 -62.5q113 -23 143 -150
q10 -40 15 -58.5t14.5 -45t19.5 -37.5t26 -20t37 -9zM170 326h155q88 1 131.5 44.5t43.5 139.5t-43.5 139t-131.5 43h-155v-366z" />
    <glyph glyph-name="S" unicode="S" horiz-adv-x="550" 
d="M279 710q40 0 75.5 -16t57.5 -32.5t30 -16.5q11 0 11 15v40h8v-175h-8l-2 10q-17 83 -62 125t-110 42q-75 0 -114.5 -34.5t-39.5 -93.5q0 -48 27 -85.5t67.5 -59.5l88 -47l88 -48t67.5 -63t27 -91q0 -82 -60 -136t-160 -54q-42 0 -78 10t-55 22.5l-35 22.5t-23 10
q-11 0 -11 -15v-40h-8v175h8l2 -10q17 -86 66 -126.5t134 -40.5q82 0 128.5 39.5t46.5 118.5q0 57 -37.5 99t-91.5 68.5l-107.5 53.5t-91 70.5t-37.5 102.5q0 70 54.5 115t144.5 45z" />
    <glyph glyph-name="T" unicode="T" horiz-adv-x="650" 
d="M600 536h-8v30q0 126 -106 126h-106q-20 0 -25 -5t-5 -25v-624q0 -20 5 -25t25 -5h40v-8h-190v8h40q20 0 25 5t5 25v624q0 20 -5 25t-25 5h-106q-106 0 -106 -126v-30h-8v164h550v-164z" />
    <glyph glyph-name="U" unicode="U" horiz-adv-x="715" 
d="M680 692h-38q-20 0 -25 -5t-5 -25v-437q0 -122 -70.5 -178.5t-176.5 -56.5q-265 0 -265 250v422q0 20 -5 25t-25 5h-40v8h190v-8h-40q-20 0 -25 -5t-5 -25v-437q0 -227 215 -227q103 0 171 54.5t68 172.5v437q0 20 -5 25t-25 5h-38v8h144v-8z" />
    <glyph glyph-name="V" unicode="V" horiz-adv-x="710" 
d="M705 692h-44q-20 0 -26.5 -5t-14.5 -25l-252 -667h-8l-267 667q-8 20 -16 25t-28 5h-34v8h214v-8h-66q-16 0 -19 -7t4 -23l239 -594l223 592q12 32 -15 32h-65v8h175v-8z" />
    <glyph glyph-name="W" unicode="W" horiz-adv-x="1020" 
d="M1015 700v-8h-44q-20 0 -26.5 -5t-14.5 -25l-242 -667h-8l-169 477l-173 -477h-8l-237 667q-7 20 -15.5 25t-28.5 5h-34v8h214v-8h-67q-16 0 -19 -7t4 -23l210 -594l149 416l-63 178q-7 20 -15.5 25t-28.5 5h-34v8h214v-8h-67q-16 0 -19 -7t4 -23l210 -594l213 592
q12 32 -15 32h-65v8h175z" />
    <glyph glyph-name="X" unicode="X" horiz-adv-x="640" 
d="M630 8v-8h-230v8h62q33 0 15 30l-171 298l-186 -298q-9 -15 -4.5 -22.5t19.5 -7.5h65v-8h-190v8h50q20 0 29.5 5.5t21.5 24.5l191 306l-183 318q-11 20 -18 25t-23 5h-53v8h230v-8h-61q-33 0 -15 -30l155 -271l162 271q17 30 -15 30h-66v8h190v-8h-49q-21 0 -30.5 -5.5
t-20.5 -24.5l-166 -278l198 -346q11 -20 18 -25t23 -5h52z" />
    <glyph glyph-name="Y" unicode="Y" horiz-adv-x="670" 
d="M660 692h-25q-43 0 -61 -30l-214 -371v-253q0 -20 5 -25t25 -5h40v-8h-190v8h40q20 0 25 5t5 25v241l-211 383q-10 18 -20.5 24t-30.5 6h-38v8h234v-8h-70q-15 0 -20 -4t-3.5 -9.5t8.5 -16.5l197 -362l207 359q10 19 6.5 26t-21.5 7h-73v8h185v-8z" />
    <glyph glyph-name="Z" unicode="Z" horiz-adv-x="640" 
d="M560 692l-440 -684h346q106 0 106 126v30h8v-164h-520v8l440 684h-306q-106 0 -106 -126v-30h-8v164h480v-8z" />
    <glyph glyph-name="bracketleft" unicode="[" 
d="M240 782h-70v-864h70v-8h-120v880h120v-8z" />
    <glyph glyph-name="backslash" unicode="\" horiz-adv-x="480" 
d="M400 0h-13l-307 700h13z" />
    <glyph glyph-name="bracketright" unicode="]" 
d="M170 -90h-120v8h70v864h-70v8h120v-880z" />
    <glyph glyph-name="asciicircum" unicode="^" horiz-adv-x="420" 
d="M208 320h5q22 -35 66.5 -81.5t80.5 -66.5l-2 -4q-98 43 -148 87q-47 -43 -148 -87l-2 4q37 20 81.5 67t66.5 81z" />
    <glyph glyph-name="underscore" unicode="_" horiz-adv-x="450" 
d="M400 -40h-350v12h350v-12z" />
    <glyph glyph-name="grave" unicode="`" 
d="M86 700q28 0 48 -46q15 -35 36 -56t62 -42l-3 -6q-3 2 -37 18t-48 24.5l-38.5 24t-35 29t-10.5 26.5t7.5 20.5t18.5 7.5z" />
    <glyph glyph-name="a" unicode="a" horiz-adv-x="490" 
d="M237 510q95 0 131.5 -43t36.5 -122v-264q0 -70 36 -70q17 0 29 17l5 -5q-19 -29 -54 -29q-66 0 -66 89v51q-47 -144 -178 -144q-61 0 -99 31t-38 81q0 30 15 58t48.5 55.5t98 48t153.5 28.5v73q0 27 -3 45t-13 42t-36 37t-66 13q-112 0 -112 -90v-17q0 -25 -25 -25
t-25 25q0 41 45.5 78t116.5 37zM355 193v91q-80 -8 -134 -24.5t-81.5 -42t-38.5 -52.5t-11 -63q0 -43 26.5 -72.5t76.5 -29.5q73 0 117.5 61t44.5 132z" />
    <glyph glyph-name="b" unicode="b" horiz-adv-x="555" 
d="M150 750v-404q15 79 62 121.5t103 42.5q94 0 144.5 -70.5t50.5 -189.5t-50.5 -189.5t-144.5 -70.5q-56 0 -103 43t-62 121v-154h-120v8h40q20 0 25 5t5 25v654q0 20 -6.5 27t-23.5 3l-40 -10v8zM315 502q-73 0 -119 -65t-46 -159v-56q0 -94 46 -159t119 -65t109 67.5
t36 184.5t-36 184.5t-109 67.5z" />
    <glyph glyph-name="c" unicode="c" horiz-adv-x="500" 
d="M280 510q72 0 126 -37.5t54 -77.5q0 -25 -25 -25t-25 25v10q0 36 -28.5 66.5t-101.5 30.5q-84 0 -134.5 -68.5t-50.5 -183.5q0 -117 46 -184.5t129 -67.5q123 0 180 99l5 -7q-58 -100 -185 -100q-111 0 -168 74.5t-57 185.5q0 109 61.5 184.5t173.5 75.5z" />
    <glyph glyph-name="d" unicode="d" horiz-adv-x="555" 
d="M455 750v-712q0 -20 5.5 -25t24.5 -5h40v-8h-120v154q-15 -78 -62 -121t-103 -43q-94 0 -144.5 70.5t-50.5 189.5t50.5 189.5t144.5 70.5q56 0 103 -42.5t62 -121.5v346q0 20 -6.5 27t-23.5 3l-40 -10v8zM240 502q-73 0 -109 -67.5t-36 -184.5t36 -184.5t109 -67.5
t119 65t46 159v56q0 94 -46 159t-119 65z" />
    <glyph glyph-name="e" unicode="e" horiz-adv-x="500" 
d="M270 -2q123 0 180 99l5 -7q-58 -100 -185 -100q-111 0 -168 74.5t-57 185.5t57 185.5t168 74.5q185 0 185 -226h-359q-1 -11 -1 -34q0 -116 46.5 -184t128.5 -68zM270 502q-74 0 -119.5 -56t-53.5 -154h308q0 24 -1 40t-4 44.5t-12 47t-23 38.5t-38.5 30t-56.5 10z" />
    <glyph glyph-name="f" unicode="f" horiz-adv-x="275" 
d="M215 750q32 0 53.5 -16t21.5 -34q0 -25 -25 -25t-25 25q0 5 2.5 13.5t2.5 12.5q0 16 -30 16q-39 0 -52 -27.5t-13 -88.5v-126h105v-12h-105v-450q0 -20 5 -25t25 -5h40v-8h-190v8h40q20 0 25 5t5 25v450h-70v12h70v104q0 71 30.5 108.5t84.5 37.5z" />
    <glyph glyph-name="g" unicode="g" horiz-adv-x="470" 
d="M320 75q74 0 112 -37.5t38 -87.5q0 -73 -71.5 -136.5t-176.5 -63.5q-96 0 -154 41t-58 109q0 38 29 70.5t78 50.5q-37 10 -57 35.5t-20 61.5q0 59 68 111q-43 46 -43 116q0 74 47.5 119.5t122.5 45.5q46 0 86 -19q44 39 89 39q50 0 50 -31q0 -22 -22 -22
q-13 0 -19.5 10.5t-11.5 20.5t-15 10q-25 0 -64 -31q77 -45 77 -142q0 -74 -47.5 -119.5t-122.5 -45.5q-74 0 -121 44q-62 -44 -62 -90q0 -42 26.5 -55.5t84.5 -13.5q39 0 84 5t73 5zM235 502q-56 0 -88 -42.5t-32 -114.5t32 -114.5t88 -42.5t88 42.5t32 114.5t-32 114.5
t-88 42.5zM222 -242q100 0 156.5 50.5t56.5 107.5q0 109 -116 109q-37 0 -84.5 -5t-71.5 -5q-19 0 -34 3q-79 -27 -79 -123q0 -53 43 -95t129 -42z" />
    <glyph glyph-name="h" unicode="h" horiz-adv-x="590" 
d="M150 750v-400q16 77 62.5 118.5t102.5 41.5q86 0 130.5 -47t44.5 -128v-297q0 -20 5 -25t25 -5h40v-8h-190v8h40q20 0 25 5t5 25v297q0 167 -125 167q-73 0 -119 -64.5t-46 -155.5v-244q0 -20 5 -25t25 -5h40v-8h-190v8h40q20 0 25 5t5 25v654q0 20 -6.5 27t-23.5 3
l-40 -10v8z" />
    <glyph glyph-name="i" unicode="i" horiz-adv-x="250" 
d="M125 650q14 0 24.5 -10.5t10.5 -24.5t-10.5 -24.5t-24.5 -10.5t-24.5 10.5t-10.5 24.5t10.5 24.5t24.5 10.5zM150 500v-462q0 -20 5 -25t25 -5h40v-8h-190v8h40q20 0 25 5t5 25v404q0 20 -6.5 27t-23.5 3l-40 -10v8z" />
    <glyph glyph-name="j" unicode="j" horiz-adv-x="230" 
d="M125 650q14 0 24.5 -10.5t10.5 -24.5t-10.5 -24.5t-24.5 -10.5t-24.5 10.5t-10.5 24.5t10.5 24.5t24.5 10.5zM150 500v-604q0 -70 -31.5 -108t-85.5 -38q-37 0 -60 15.5t-23 34.5q0 25 25 25t25 -25q0 -5 -2.5 -13.5t-2.5 -12.5q0 -16 38 -16q39 0 53 29t14 87v568
q0 20 -6.5 27t-23.5 3l-40 -10v8z" />
    <glyph glyph-name="k" unicode="k" horiz-adv-x="570" 
d="M150 750v-712q0 -20 5 -25t25 -5h40v-8h-190v8h40q20 0 25 5t5 25v654q0 20 -6.5 27t-23.5 3l-40 -10v8zM540 492h-38q-26 0 -40.5 -6t-38.5 -24l-217 -171l249 -253q30 -30 66 -30h34v-8h-235v8h60q17 0 22 9t-7 21l-235 227l250 197q13 11 6.5 20.5t-21.5 9.5h-65v8
h210v-8z" />
    <glyph glyph-name="l" unicode="l" horiz-adv-x="250" 
d="M150 750v-712q0 -20 5 -25t25 -5h40v-8h-190v8h40q20 0 25 5t5 25v654q0 20 -6.5 27t-23.5 3l-40 -10v8z" />
    <glyph glyph-name="m" unicode="m" horiz-adv-x="887" 
d="M655 510q86 0 130.5 -47t44.5 -128v-297q0 -20 5 -25t25 -5h40v-8h-190v8h40q20 0 25 5t5 25v297q0 167 -125 167q-73 0 -119 -64.5t-46 -155.5v-244q0 -20 5 -25t25 -5h40v-8h-190v8h40q20 0 25 5t5 25v297q0 167 -125 167q-73 0 -119 -64.5t-46 -155.5v-244
q0 -20 5 -25t25 -5h40v-8h-190v8h40q20 0 25 5t5 25v404q0 20 -6.5 27t-23.5 3l-40 -10v8l120 30v-150q16 77 62.5 118.5t102.5 41.5q84 0 128 -43.5t47 -116.5q16 77 62.5 118.5t102.5 41.5z" />
    <glyph glyph-name="n" unicode="n" horiz-adv-x="590" 
d="M315 510q86 0 130.5 -47t44.5 -128v-297q0 -20 5 -25t25 -5h40v-8h-190v8h40q20 0 25 5t5 25v297q0 167 -125 167q-73 0 -119 -64.5t-46 -155.5v-244q0 -20 5 -25t25 -5h40v-8h-190v8h40q20 0 25 5t5 25v404q0 20 -6.5 27t-23.5 3l-40 -10v8l120 30v-150
q16 77 62.5 118.5t102.5 41.5z" />
    <glyph glyph-name="o" unicode="o" horiz-adv-x="540" 
d="M270 510q111 0 168 -74.5t57 -185.5t-57 -185.5t-168 -74.5t-168 74.5t-57 185.5t57 185.5t168 74.5zM270 502q-83 0 -129 -67.5t-46 -184.5t46 -184.5t129 -67.5q82 0 128.5 68t46.5 184t-46.5 184t-128.5 68z" />
    <glyph glyph-name="p" unicode="p" horiz-adv-x="555" 
d="M315 510q94 0 144.5 -70.5t50.5 -189.5t-50.5 -189.5t-144.5 -70.5q-56 0 -103 43t-62 121v-356q0 -20 5 -25t25 -5h40v-8h-190v8h40q20 0 25 5t5 25v644q0 20 -6.5 27t-23.5 3l-40 -10v8l120 30v-154q15 79 62 121.5t103 42.5zM315 502q-73 0 -119 -65t-46 -159v-56
q0 -94 46 -159t119 -65t109 67.5t36 184.5t-36 184.5t-109 67.5z" />
    <glyph glyph-name="q" unicode="q" horiz-adv-x="555" 
d="M240 510q56 0 103 -42.5t62 -121.5v154h120v-8h-40q-19 0 -24.5 -5t-5.5 -25v-664q0 -20 5.5 -25t24.5 -5h40v-8h-190v8h40q19 0 24.5 5t5.5 25v356q-15 -78 -62 -121t-103 -43q-94 0 -144.5 70.5t-50.5 189.5t50.5 189.5t144.5 70.5zM240 502q-73 0 -109 -67.5
t-36 -184.5t36 -184.5t109 -67.5t119 65t46 159v56q0 94 -46 159t-119 65z" />
    <glyph glyph-name="r" unicode="r" horiz-adv-x="370" 
d="M295 510q24 0 39.5 -12t15.5 -33q0 -11 -7 -18t-18 -7t-18 6.5t-7 16.5q0 5 2.5 13t2.5 12q0 14 -17 14q-51 0 -94.5 -70.5t-43.5 -156.5v-237q0 -20 5 -25t25 -5h40v-8h-190v8h40q20 0 25 5t5 25v404q0 20 -6.5 27t-23.5 3l-40 -10v8l120 30v-160q20 82 59.5 126
t85.5 44z" />
    <glyph glyph-name="s" unicode="s" horiz-adv-x="450" 
d="M385 360h-8l-2 10q-10 51 -40 82.5t-57.5 40.5t-53.5 9q-60 0 -89.5 -29.5t-29.5 -69.5q0 -41 31 -68.5t75 -43l88 -31.5t75 -47.5t31 -79.5q0 -60 -47 -101.5t-133 -41.5q-45 0 -100.5 22.5t-60.5 22.5q-11 0 -11 -15v-30h-8v150h8l2 -10q15 -73 66 -102.5t104 -29.5
q68 0 101.5 33t33.5 81q0 42 -31 70t-75 44l-88 33t-75 47.5t-31 75.5q0 58 42 93t122 35q42 0 91 -22.5t51 -22.5q11 0 11 15v30h8v-150z" />
    <glyph glyph-name="t" unicode="t" horiz-adv-x="285" 
d="M140 500h130v-12h-130v-407q0 -37 18.5 -54.5t39.5 -17.5q22 0 40.5 11t24.5 26l7 -3q-5 -16 -30.5 -32.5t-58.5 -16.5q-38 0 -64.5 21.5t-26.5 67.5v405h-70v12h70v100l46 30h4v-130z" />
    <glyph glyph-name="u" unicode="u" horiz-adv-x="590" 
d="M490 500v-462q0 -20 5 -25t25 -5h40v-8h-120v151q-15 -77 -62 -119t-103 -42q-86 0 -130.5 47t-44.5 128v277q0 20 -6.5 27t-23.5 3l-40 -10v8l120 30v-335q0 -167 125 -167q73 0 119 65t46 156v223q0 20 -6.5 27t-23.5 3l-40 -10v8z" />
    <glyph glyph-name="v" unicode="v" horiz-adv-x="565" 
d="M555 492h-48q-20 0 -26.5 -5t-14.5 -25l-174 -472h-8l-186 472q-8 20 -15 25t-26 5h-47v8h234v-8h-76q-16 0 -19 -7t4 -23l156 -404l148 404q6 16 2.5 23t-17.5 7h-82v8h195v-8z" />
    <glyph glyph-name="w" unicode="w" horiz-adv-x="885" 
d="M875 500v-8h-48q-20 0 -26.5 -5t-14.5 -25l-174 -472h-9l-160 409l-151 -409h-9l-185 472q-8 20 -15 25t-26 5h-47v8h234v-8h-76q-16 0 -19 -7t4 -23l156 -404l129 353l-20 51q-8 20 -15 25t-26 5h-47v8h234v-8h-76q-16 0 -19 -7t4 -23l156 -404l148 404q6 16 2.5 23
t-17.5 7h-82v8h195z" />
    <glyph glyph-name="x" unicode="x" horiz-adv-x="530" 
d="M515 8v-8h-225v8h62q33 0 15 30l-114 194l-133 -194q-9 -15 -4.5 -22.5t19.5 -7.5h65v-8h-185v8h45q20 0 28.5 5.5t22.5 24.5l138 202l-130 222q-11 19 -18.5 24.5t-22.5 5.5h-53v8h230v-8h-61q-33 0 -15 -30l108 -185l119 185q19 30 -15 30h-66v8h185v-8h-44
q-20 0 -29.5 -5.5t-21.5 -24.5l-123 -193l135 -231q11 -19 18.5 -24.5t22.5 -5.5h47z" />
    <glyph glyph-name="y" unicode="y" horiz-adv-x="565" 
d="M555 492h-48q-20 0 -26.5 -5t-14.5 -25l-174 -472q-41 -112 -94.5 -176t-109.5 -64q-31 0 -48 15.5t-17 34.5q0 25 25 25t25 -25q0 -5 -2.5 -13.5t-2.5 -12.5q0 -16 20 -16q52 0 104 61.5t92 170.5l-186 472q-8 20 -15 25t-28 5h-45v8h234v-8h-76q-16 0 -19 -7t4 -23
l156 -404l148 404q6 16 2.5 23t-17.5 7h-82v8h195v-8z" />
    <glyph glyph-name="z" unicode="z" horiz-adv-x="460" 
d="M426 492l-336 -484h222q55 0 82.5 34.5t27.5 91.5v30h8v-164h-400v8l336 484h-203q-52 0 -81 -35t-29 -91v-30h-8v164h381v-8z" />
    <glyph glyph-name="braceleft" unicode="{" horiz-adv-x="370" 
d="M320 790v-8q-61 0 -90.5 -25.5t-29.5 -106.5q0 -20 5 -90t5 -90q0 -56 -38 -85.5t-77 -34.5q39 -5 77 -34.5t38 -85.5q0 -20 -5 -90t-5 -90q0 -81 29.5 -106.5t90.5 -25.5v-8q-170 0 -170 150q0 19 5 80.5t5 84.5q0 65 -19.5 93t-70.5 28v8q51 0 70.5 28t19.5 93
q0 23 -5 84.5t-5 80.5q0 150 170 150z" />
    <glyph glyph-name="bar" unicode="|" horiz-adv-x="172" 
d="M92 -90h-12v880h12v-880z" />
    <glyph glyph-name="braceright" unicode="}" horiz-adv-x="370" 
d="M210 475q0 -65 19.5 -93t70.5 -28v-8q-51 0 -70.5 -28t-19.5 -93q0 -23 5 -84.5t5 -80.5q0 -150 -170 -150v8q61 0 90.5 25.5t29.5 106.5q0 20 -5 90t-5 90q0 56 38 85.5t77 34.5q-39 5 -77 34.5t-38 85.5q0 20 5 90t5 90q0 81 -29.5 106.5t-90.5 25.5v8q170 0 170 -150
q0 -19 -5 -80.5t-5 -84.5z" />
    <glyph glyph-name="asciitilde" unicode="~" horiz-adv-x="440" 
d="M382 331h8q0 -38 -18.5 -59.5t-49.5 -21.5q-25 0 -106.5 23t-104.5 23q-26 0 -39.5 -13t-13.5 -33h-8q0 38 19.5 59.5t52.5 21.5q26 0 104.5 -23t102.5 -23q26 0 39.5 13t13.5 33z" />
    <glyph glyph-name="exclamdown" unicode="&#xa1;" 
d="M145 510q13 0 21.5 -8t8.5 -22q0 -13 -8.5 -21.5t-21.5 -8.5q-14 0 -22 8.5t-8 21.5q0 30 30 30zM141 330h8q0 -122 13 -327t13 -223q0 -13 -8.5 -21.5t-21.5 -8.5q-14 0 -22 8.5t-8 21.5q0 18 13 223t13 327z" />
    <glyph glyph-name="cent" unicode="&#xa2;" horiz-adv-x="500" 
d="M282 502v-504q114 5 168 99l5 -7q-56 -95 -173 -100v-80h-12v80q-111 0 -168 74.5t-57 185.5q0 107 59 181.5t166 78.5v80h12v-80q72 -1 125 -38t53 -77q0 -25 -25 -25t-25 25v10q0 36 -28 66t-100 31zM95 250q0 -117 46 -184.5t129 -67.5v504q-79 -5 -127 -73t-48 -179z
" />
    <glyph glyph-name="sterling" unicode="&#xa3;" horiz-adv-x="550" 
d="M480 164v-164h-430v8l78 62q62 49 62 120q0 50 -46 158h-94v16h87q-47 108 -47 166q0 83 53.5 131.5t145.5 48.5q41 0 76.5 -16t57 -32.5t29.5 -16.5q11 0 11 15v40h8v-175h-8l-2 10q-16 82 -60.5 124.5t-111.5 42.5q-154 0 -154 -143q0 -15 1.5 -29t6 -30.5t6.5 -26.5
t10 -30l10 -25t12 -28.5t11 -25.5h188v-16h-181q31 -75 31 -120q0 -85 -98 -165l-16 -13h246q62 0 86 15t24 69v30h8z" />
    <glyph glyph-name="currency" unicode="&#xa4;" horiz-adv-x="790" 
d="M470 702q-106 0 -187 -74t-105 -193h222v-12h-224q-6 -35 -6 -73q0 -39 6 -75h224v-12h-221q24 -118 104.5 -191.5t186.5 -73.5q206 0 240 167l2 10h8v-175h-8v40q0 15 -11 15q-7 0 -27.5 -10l-45.5 -22.5t-68.5 -22.5t-89.5 -10q-124 0 -218.5 75.5t-121.5 197.5h-80v12
h77q-7 34 -7 75t7 73h-77v12h79q27 123 121.5 199t219.5 76q46 0 89.5 -10t68.5 -22.5l45.5 -22.5t27.5 -10q11 0 11 15v40h8v-175h-8l-2 10q-34 167 -240 167z" />
    <glyph glyph-name="yen" unicode="&#xa5;" horiz-adv-x="670" 
d="M660 700v-8h-25q-43 0 -61 -30l-214 -371v-12h130v-12h-130v-229q0 -20 5 -25t25 -5h40v-8h-190v8h40q20 0 25 5t5 25v229h-130v12h130l-211 383q-10 18 -20.5 24t-30.5 6h-38v8h234v-8h-70q-15 0 -20 -4t-3.5 -9.5t8.5 -16.5l197 -362l207 359q10 19 6.5 26t-21.5 7h-73
v8h185z" />
    <glyph glyph-name="brokenbar" unicode="&#xa6;" horiz-adv-x="172" 
d="M92 410h-12v380h12v-380zM92 -90h-12v380h12v-380z" />
    <glyph glyph-name="section" unicode="&#xa7;" horiz-adv-x="550" 
d="M421 194q69 -49 69 -122q0 -74 -60 -123t-160 -49q-56 0 -98 14.5t-64 29t-29 14.5q-11 0 -11 -14v-35h-8v159h8l2 -9q17 -78 63.5 -114.5t136.5 -36.5q81 0 128 36t47 104q0 43 -27 77t-67.5 54l-88 42.5l-88 43.5t-67.5 56.5t-27 81.5q0 68 78 115q-78 51 -78 127
q0 63 54.5 104t144.5 41q40 0 75.5 -14.5t57.5 -29t30 -14.5q11 0 11 14v35h8v-159h-8l-2 9q-33 151 -172 151q-74 0 -114 -31.5t-40 -81.5q0 -51 37.5 -88t91 -60.5l107.5 -48t91.5 -64t37.5 -94.5q0 -61 -69 -120zM125 427q0 -46 32 -81.5t71.5 -54l97.5 -45t89 -47.5
q30 35 30 91q0 36 -18 65t-50.5 50t-65.5 36.5l-76.5 35t-69.5 36.5q-40 -31 -40 -86z" />
    <glyph glyph-name="dieresis" unicode="&#xa8;" horiz-adv-x="350" 
d="M95 650q14 0 24.5 -10.5t10.5 -24.5t-10.5 -24.5t-24.5 -10.5t-24.5 10.5t-10.5 24.5t10.5 24.5t24.5 10.5zM255 650q14 0 24.5 -10.5t10.5 -24.5t-10.5 -24.5t-24.5 -10.5t-24.5 10.5t-10.5 24.5t10.5 24.5t24.5 10.5z" />
    <glyph glyph-name="copyright" unicode="&#xa9;" horiz-adv-x="820" 
d="M410 710q149 0 254.5 -105.5t105.5 -254.5t-105.5 -254.5t-254.5 -105.5t-254.5 105.5t-105.5 254.5t105.5 254.5t254.5 105.5zM410 698q-144 0 -246 -102t-102 -246t102 -246t246 -102t246 102t102 246t-102 246t-246 102zM419 566q31 0 61 -9t49 -18t23 -9q7 0 7 9v21
h8v-110h-8l-2 6q-28 102 -138 102q-69 0 -115 -59.5t-46 -148.5t46 -148.5t115 -59.5q110 0 138 102l2 6h8v-110h-8v21q0 9 -7 9q-4 0 -22.5 -9t-48.5 -18t-61 -9q-89 0 -151 61.5t-62 154.5t61.5 154.5t150.5 61.5z" />
    <glyph glyph-name="ordfeminine" unicode="&#xaa;" horiz-adv-x="420" 
d="M194 707q68 0 94 -30.5t26 -87.5v-183q0 -48 25 -48q11 0 21 13l3 -4q-14 -21 -41 -21q-48 0 -48 63v37q-28 -103 -123 -103q-43 0 -69.5 22t-26.5 57q0 46 50.5 83.5t168.5 48.5v53q0 19 -2 32t-9.5 29.5t-25 25t-44.5 8.5q-75 0 -75 -59v-17q0 -19 -20 -19
q-19 0 -19 19q0 30 32 55.5t83 25.5zM274 482v68q-103 -11 -141 -43.5t-38 -84.5q0 -31 18 -51t52 -20q48 0 78.5 40.5t30.5 90.5zM370 288h-320v12h320v-12z" />
    <glyph glyph-name="guillemetleft" unicode="&#xab;" horiz-adv-x="570" 
d="M310 455v-4q-53 -120 -188 -202q135 -82 188 -202v-4q-115 139 -270 203v6q155 64 270 203zM530 455v-4q-53 -120 -188 -202q135 -82 188 -202v-4q-115 139 -270 203v6q155 64 270 203z" />
    <glyph glyph-name="logicalnot" unicode="&#xac;" horiz-adv-x="490" 
d="M440 144h-12v139h-378v12h390v-151z" />
    <glyph glyph-name="softhyphen" unicode="&#xad;" horiz-adv-x="390" 
d="M340 243h-290v12h290v-12z" />
    <glyph glyph-name="registered" unicode="&#xae;" horiz-adv-x="820" 
d="M410 710q149 0 254.5 -105.5t105.5 -254.5t-105.5 -254.5t-254.5 -105.5t-254.5 105.5t-105.5 254.5t105.5 254.5t254.5 105.5zM410 2q144 0 246 102t102 246t-102 246t-246 102t-246 -102t-102 -246t102 -246t246 -102zM546 241q12 -53 24.5 -74.5t42.5 -21.5
q3 0 11.5 1.5t10.5 1.5v-8q-29 -6 -48 -6q-39 0 -59 24t-34 79q-14 56 -32.5 74t-53.5 18h-76v-163q0 -11 3 -14.5t15 -3.5h20v-8h-127v8h21q11 0 14.5 3.5t3.5 14.5v368q0 11 -3.5 14.5t-14.5 3.5h-21v8h176q72 0 106.5 -31.5t34.5 -82.5q0 -45 -27 -75.5t-81 -38.5
q77 -17 94 -91zM332 337h80q97 0 97 109q0 56 -24 81t-73 25h-80v-215z" />
    <glyph glyph-name="macron" unicode="&#xaf;" horiz-adv-x="370" 
d="M310 600h-250v12h250v-12z" />
    <glyph glyph-name="degree" unicode="&#xb0;" 
d="M145 710q45 0 75 -30t30 -75t-30 -75t-75 -30t-75 30t-30 75t30 75t75 30zM145 698q-41 0 -67 -26t-26 -67t26 -67t67 -26t67 26t26 67t-26 67t-67 26z" />
    <glyph glyph-name="plusminus" unicode="&#xb1;" horiz-adv-x="470" 
d="M420 305v-12h-179v-179h-12v179h-179v12h179v179h12v-179h179zM50 85h370v-12h-370v12z" />
    <glyph glyph-name="twosuperior" unicode="&#xb2;" horiz-adv-x="285" 
d="M133 805q52 0 82.5 -25t30.5 -74q0 -31 -22.5 -65.5t-47 -57.5t-88.5 -78l-19 -16h115q36 0 49 7t13 32v13h4v-91h-225v4l61 55q69 59 94.5 103.5t25.5 95.5q0 44 -19 68.5t-54 24.5q-26 0 -40 -10.5t-16 -20t-2 -24.5q0 -18 -19 -18q-18 0 -18 18q0 21 29 40t66 19z" />
    <glyph glyph-name="threesuperior" unicode="&#xb3;" horiz-adv-x="286" 
d="M130 805q52 0 83 -21t31 -60t-35 -62.5t-78 -29.5q48 -4 86.5 -26.5t38.5 -66.5q0 -47 -35.5 -70.5t-90.5 -23.5q-40 0 -70 19t-30 40q0 18 18 18q19 0 19 -18q0 -55 63 -55q86 0 86 88q0 91 -108 93q-7 -1 -14 -2.5t-11 -1.5q-7 0 -7 6q0 5 7 5q3 0 10.5 -1.5t14.5 -1.5
q99 2 99 89q0 35 -20 56.5t-57 21.5q-20 0 -32 -5t-16.5 -15.5t-5.5 -17t-1 -17.5q0 -18 -19 -18q-18 0 -18 18q0 21 28 40t64 19z" />
    <glyph glyph-name="acute" unicode="&#xb4;" 
d="M204 700q11 0 18.5 -7.5t7.5 -20.5t-10.5 -26.5t-35 -29l-38.5 -24t-48 -24.5t-37 -18l-3 6q41 21 62 42t36 56q20 46 48 46z" />
    <glyph glyph-name="paragraph" unicode="&#xb6;" horiz-adv-x="640" 
d="M590 692h-48v-684h48v-8h-185q-158 0 -261.5 93t-103.5 257q0 163 103.5 256.5t261.5 93.5h185v-8zM405 692v-684h129v684h-129z" />
    <glyph glyph-name="periodcentered" unicode="&#xb7;" horiz-adv-x="180" 
d="M90 279q13 0 21.5 -8.5t8.5 -21.5t-8 -21.5t-22 -8.5q-30 0 -30 30q0 13 8 21.5t22 8.5z" />
    <glyph glyph-name="cedilla" unicode="&#xb8;" horiz-adv-x="260" 
d="M110 0v-58q43 -1 71.5 -19t28.5 -55q0 -35 -26 -56.5t-72 -21.5q-34 0 -62 12l2 8q26 -12 59 -12q38 0 53.5 22t15.5 48t-17.5 46.5t-60.5 19.5v66h8z" />
    <glyph glyph-name="onesuperior" unicode="&#xb9;" horiz-adv-x="195" 
d="M118 805v-336q0 -10 2.5 -12.5t12.5 -2.5h37v-4h-145v4h38q10 0 12.5 2.5t2.5 12.5v297q0 8 -3 10.5t-12 1.5q-14 -2 -38 -2v4q73 0 89 25h4z" />
    <glyph glyph-name="ordmasculine" unicode="&#xba;" horiz-adv-x="420" 
d="M210 707q78 0 118.5 -52t40.5 -130t-40.5 -130t-118.5 -52t-118.5 52t-40.5 130t40.5 130t118.5 52zM210 702q-56 0 -87.5 -47.5t-31.5 -129.5t31.5 -129.5t87.5 -47.5t87.5 47.5t31.5 129.5t-31.5 129.5t-87.5 47.5zM370 288h-320v12h320v-12z" />
    <glyph glyph-name="guillemetright" unicode="&#xbb;" horiz-adv-x="570" 
d="M40 451v4q115 -139 270 -203v-6q-155 -64 -270 -203v4q53 120 188 202q-135 82 -188 202zM260 451v4q115 -139 270 -203v-6q-155 -64 -270 -203v4q53 120 188 202q-135 82 -188 202z" />
    <glyph glyph-name="onequarter" unicode="&#xbc;" horiz-adv-x="635" 
d="M170 350h-145v4h38q10 0 12.5 2.5t2.5 12.5v297q0 8 -3 10.5t-12 1.5q-14 -2 -38 -2v4q73 0 89 25h4v-336q0 -10 2.5 -12.5t12.5 -2.5h37v-4zM465 700l-307 -700h-13l307 700h13zM558 94v-75q0 -10 2.5 -12.5t12.5 -2.5h37v-4h-145v4h38q10 0 12.5 2.5t2.5 12.5v75h-158
v4l194 257h4v-257h52v-4h-52zM518 98v203l-153 -203h153z" />
    <glyph glyph-name="onehalf" unicode="&#xbd;" horiz-adv-x="680" 
d="M118 705v-336q0 -10 2.5 -12.5t12.5 -2.5h37v-4h-145v4h38q10 0 12.5 2.5t2.5 12.5v297q0 8 -3 10.5t-12 1.5q-14 -2 -38 -2v4q73 0 89 25h4zM158 0h-13l307 700h13zM528 355q52 0 82.5 -25t30.5 -74q0 -31 -22.5 -65.5t-47 -57.5t-88.5 -78l-19 -16h115q36 0 49 7t13 32
v13h4v-91h-225v4l61 55q69 59 94.5 103.5t25.5 95.5q0 44 -19 68.5t-54 24.5q-26 0 -40 -10.5t-16 -20t-2 -24.5q0 -18 -19 -18q-18 0 -18 18q0 21 29 40t66 19z" />
    <glyph glyph-name="threequarters" unicode="&#xbe;" horiz-adv-x="706" 
d="M256 439q0 -47 -35.5 -70.5t-90.5 -23.5q-40 0 -70 19t-30 40q0 18 18 18q19 0 19 -18q0 -55 63 -55q86 0 86 88q0 91 -108 93q-7 -1 -14 -2.5t-11 -1.5q-7 0 -7 6q0 5 7 5q3 0 10.5 -1.5t14.5 -1.5q99 2 99 89q0 35 -20 56.5t-57 21.5q-20 0 -32 -5t-16.5 -15.5
t-5.5 -17t-1 -17.5q0 -18 -19 -18q-18 0 -18 18q0 21 28 40t64 19q52 0 83 -21t31 -60t-35 -62.5t-78 -29.5q48 -4 86.5 -26.5t38.5 -66.5zM536 700l-307 -700h-13l307 700h13zM629 94v-75q0 -10 2.5 -12.5t12.5 -2.5h37v-4h-145v4h38q10 0 12.5 2.5t2.5 12.5v75h-158v4
l194 257h4v-257h52v-4h-52zM589 98v203l-153 -203h153z" />
    <glyph glyph-name="questiondown" unicode="&#xbf;" horiz-adv-x="495" 
d="M305 510q30 0 30 -30q0 -13 -8 -21.5t-22 -8.5q-13 0 -21.5 8.5t-8.5 21.5q0 14 8.5 22t21.5 8zM304 330h8q0 -39 -21 -77.5t-50.5 -70.5l-59 -66.5t-50.5 -80t-21 -95.5q0 -83 38 -132.5t117 -49.5q76 0 108 33.5t32 68.5v5q0 25 25 25t25 -25q0 -39 -58.5 -77
t-131.5 -38q-95 0 -150 49.5t-55 143.5q0 54 25 99.5t61 77l72 61.5t61 67.5t25 81.5z" />
    <glyph glyph-name="Agrave" unicode="&#xc0;" horiz-adv-x="710" 
d="M402 756l-3 -6q-3 2 -37 18t-48 24.5l-38.5 24t-35 29t-10.5 26.5t7.5 20.5t18.5 7.5q28 0 48 -46q15 -35 36 -56t62 -42zM705 8v-8h-200v8h53q16 0 19 7t-4 23l-82 195h-325l-76 -193q-12 -32 15 -32h60v-8h-160v8h35q20 0 26.5 4.5t14.5 25.5l261 667h8l278 -667
q8 -19 17 -24.5t29 -5.5h31zM488 241l-165 392l-154 -392h319z" />
    <glyph glyph-name="Aacute" unicode="&#xc1;" horiz-adv-x="710" 
d="M482 872q0 -13 -10.5 -26.5t-35 -29l-38.5 -24t-48 -24.5t-37 -18l-3 6q41 21 62 42t36 56q20 46 48 46q11 0 18.5 -7.5t7.5 -20.5zM705 8v-8h-200v8h53q16 0 19 7t-4 23l-82 195h-325l-76 -193q-12 -32 15 -32h60v-8h-160v8h35q20 0 26.5 4.5t14.5 25.5l261 667h8
l278 -667q8 -19 17 -24.5t29 -5.5h31zM488 241l-165 392l-154 -392h319z" />
    <glyph glyph-name="Acircumflex" unicode="&#xc2;" horiz-adv-x="710" 
d="M346 835q-47 -43 -148 -87l-4 8q37 20 82 65.5t66 78.5h9q21 -33 65.5 -78.5t81.5 -65.5l-4 -8q-98 43 -148 87zM705 8v-8h-200v8h53q16 0 19 7t-4 23l-82 195h-325l-76 -193q-12 -32 15 -32h60v-8h-160v8h35q20 0 26.5 4.5t14.5 25.5l261 667h8l278 -667q8 -19 17 -24.5
t29 -5.5h31zM488 241l-165 392l-154 -392h319z" />
    <glyph glyph-name="Atilde" unicode="&#xc3;" horiz-adv-x="710" 
d="M267 826q-26 0 -39.5 -13t-13.5 -33h-8q0 38 19.5 59.5t52.5 21.5q26 0 74.5 -23t72.5 -23q26 0 39.5 13t13.5 33h8q0 -38 -18.5 -59.5t-49.5 -21.5q-25 0 -76.5 23t-74.5 23zM705 8v-8h-200v8h53q16 0 19 7t-4 23l-82 195h-325l-76 -193q-12 -32 15 -32h60v-8h-160v8h35
q20 0 26.5 4.5t14.5 25.5l261 667h8l278 -667q8 -19 17 -24.5t29 -5.5h31zM488 241l-165 392l-154 -392h319z" />
    <glyph glyph-name="Adieresis" unicode="&#xc4;" horiz-adv-x="710" 
d="M266 780q-14 0 -24.5 10.5t-10.5 24.5t10.5 24.5t24.5 10.5t24.5 -10.5t10.5 -24.5t-10.5 -24.5t-24.5 -10.5zM426 780q-14 0 -24.5 10.5t-10.5 24.5t10.5 24.5t24.5 10.5t24.5 -10.5t10.5 -24.5t-10.5 -24.5t-24.5 -10.5zM705 8v-8h-200v8h53q16 0 19 7t-4 23l-82 195
h-325l-76 -193q-12 -32 15 -32h60v-8h-160v8h35q20 0 26.5 4.5t14.5 25.5l261 667h8l278 -667q8 -19 17 -24.5t29 -5.5h31zM488 241l-165 392l-154 -392h319z" />
    <glyph glyph-name="Aring" unicode="&#xc5;" horiz-adv-x="710" 
d="M346 770q-45 0 -75 30t-30 75t30 75t75 30t75 -30t30 -75t-30 -75t-75 -30zM346 968q-41 0 -67 -26t-26 -67t26 -67t67 -26t67 26t26 67t-26 67t-67 26zM705 8v-8h-200v8h53q16 0 19 7t-4 23l-82 195h-325l-76 -193q-12 -32 15 -32h60v-8h-160v8h35q20 0 26.5 4.5
t14.5 25.5l261 667h8l278 -667q8 -19 17 -24.5t29 -5.5h31zM488 241l-165 392l-154 -392h319z" />
    <glyph glyph-name="AE" unicode="&#xc6;" horiz-adv-x="995" 
d="M925 164v-164h-525v8h40q20 0 25 5t5 25v195h-257l-112 -195q-17 -30 15 -30h59v-8h-170v8h36q21 0 30.5 5.5t20.5 24.5l378 662h430v-164h-8v30q0 126 -106 126h-236q-20 0 -25 -5t-5 -25v-300h166q106 0 106 88v30h8v-244h-8v30q0 88 -106 88h-166v-316q0 -20 5 -25
t25 -5h261q106 0 106 126v30h8zM470 241v442l-253 -442h253z" />
    <glyph glyph-name="Ccedilla" unicode="&#xc7;" horiz-adv-x="740" 
d="M420 702q-126 0 -213 -100.5t-87 -251.5t87 -251.5t213 -100.5q206 0 240 167l2 10h8v-175h-8v40q0 15 -11 15q-7 0 -37 -16t-81 -32.5t-109 -16.5v-54q43 -1 71.5 -19t28.5 -55q0 -35 -26 -56.5t-72 -21.5q-34 0 -62 12l2 8q26 -12 59 -12q38 0 53.5 22t15.5 48
t-17.5 46.5t-60.5 19.5v62q-145 2 -245.5 104t-100.5 256q0 155 101.5 257.5t248.5 102.5q46 0 89.5 -10t68.5 -22.5l45.5 -22.5t27.5 -10q11 0 11 15v40h8v-175h-8l-2 10q-34 167 -240 167z" />
    <glyph glyph-name="Egrave" unicode="&#xc8;" horiz-adv-x="645" 
d="M386 756l-3 -6q-3 2 -37 18t-48 24.5l-38.5 24t-35 29t-10.5 26.5t7.5 20.5t18.5 7.5q28 0 48 -46q15 -35 36 -56t62 -42zM575 164v-164h-525v8h40q20 0 25 5t5 25v624q0 20 -5 25t-25 5h-40v8h500v-164h-8v30q0 126 -106 126h-236q-20 0 -25 -5t-5 -25v-300h166
q106 0 106 88v30h8v-244h-8v30q0 88 -106 88h-166v-316q0 -20 5 -25t25 -5h261q106 0 106 126v30h8z" />
    <glyph glyph-name="Eacute" unicode="&#xc9;" horiz-adv-x="645" 
d="M466 872q0 -13 -10.5 -26.5t-35 -29l-38.5 -24t-48 -24.5t-37 -18l-3 6q41 21 62 42t36 56q20 46 48 46q11 0 18.5 -7.5t7.5 -20.5zM575 164v-164h-525v8h40q20 0 25 5t5 25v624q0 20 -5 25t-25 5h-40v8h500v-164h-8v30q0 126 -106 126h-236q-20 0 -25 -5t-5 -25v-300
h166q106 0 106 88v30h8v-244h-8v30q0 88 -106 88h-166v-316q0 -20 5 -25t25 -5h261q106 0 106 126v30h8z" />
    <glyph glyph-name="Ecircumflex" unicode="&#xca;" horiz-adv-x="645" 
d="M330 835q-47 -43 -148 -87l-4 8q37 20 82 65.5t66 78.5h9q21 -33 65.5 -78.5t81.5 -65.5l-4 -8q-98 43 -148 87zM575 164v-164h-525v8h40q20 0 25 5t5 25v624q0 20 -5 25t-25 5h-40v8h500v-164h-8v30q0 126 -106 126h-236q-20 0 -25 -5t-5 -25v-300h166q106 0 106 88v30
h8v-244h-8v30q0 88 -106 88h-166v-316q0 -20 5 -25t25 -5h261q106 0 106 126v30h8z" />
    <glyph glyph-name="Edieresis" unicode="&#xcb;" horiz-adv-x="645" 
d="M250 780q-14 0 -24.5 10.5t-10.5 24.5t10.5 24.5t24.5 10.5t24.5 -10.5t10.5 -24.5t-10.5 -24.5t-24.5 -10.5zM410 780q-14 0 -24.5 10.5t-10.5 24.5t10.5 24.5t24.5 10.5t24.5 -10.5t10.5 -24.5t-10.5 -24.5t-24.5 -10.5zM575 164v-164h-525v8h40q20 0 25 5t5 25v624
q0 20 -5 25t-25 5h-40v8h500v-164h-8v30q0 126 -106 126h-236q-20 0 -25 -5t-5 -25v-300h166q106 0 106 88v30h8v-244h-8v30q0 88 -106 88h-166v-316q0 -20 5 -25t25 -5h261q106 0 106 126v30h8z" />
    <glyph glyph-name="Igrave" unicode="&#xcc;" 
d="M55 900q28 0 48 -46q15 -35 36 -56t62 -42l-3 -6q-3 2 -37 18t-48 24.5l-38.5 24t-35 29t-10.5 26.5t7.5 20.5t18.5 7.5zM240 692h-40q-20 0 -25 -5t-5 -25v-624q0 -20 5 -25t25 -5h40v-8h-190v8h40q20 0 25 5t5 25v624q0 20 -5 25t-25 5h-40v8h190v-8z" />
    <glyph glyph-name="Iacute" unicode="&#xcd;" 
d="M255 900q11 0 18.5 -7.5t7.5 -20.5t-10.5 -26.5t-35 -29l-38.5 -24t-48 -24.5t-37 -18l-3 6q41 21 62 42t36 56q20 46 48 46zM240 692h-40q-20 0 -25 -5t-5 -25v-624q0 -20 5 -25t25 -5h40v-8h-190v8h40q20 0 25 5t5 25v624q0 20 -5 25t-25 5h-40v8h190v-8z" />
    <glyph glyph-name="Icircumflex" unicode="&#xce;" 
d="M141 900h9q21 -33 65.5 -78.5t81.5 -65.5l-4 -8q-98 43 -148 87q-47 -43 -148 -87l-4 8q37 20 82 65.5t66 78.5zM240 692h-40q-20 0 -25 -5t-5 -25v-624q0 -20 5 -25t25 -5h40v-8h-190v8h40q20 0 25 5t5 25v624q0 20 -5 25t-25 5h-40v8h190v-8z" />
    <glyph glyph-name="Idieresis" unicode="&#xcf;" 
d="M65 850q14 0 24.5 -10.5t10.5 -24.5t-10.5 -24.5t-24.5 -10.5t-24.5 10.5t-10.5 24.5t10.5 24.5t24.5 10.5zM225 850q14 0 24.5 -10.5t10.5 -24.5t-10.5 -24.5t-24.5 -10.5t-24.5 10.5t-10.5 24.5t10.5 24.5t24.5 10.5zM240 692h-40q-20 0 -25 -5t-5 -25v-624
q0 -20 5 -25t25 -5h40v-8h-190v8h40q20 0 25 5t5 25v624q0 20 -5 25t-25 5h-40v8h190v-8z" />
    <glyph glyph-name="Eth" unicode="&#xd0;" horiz-adv-x="770" 
d="M50 700h300q148 0 249 -98t101 -252t-101 -252t-249 -98h-300v8h40q20 0 25 5t5 25v306h-70v12h70v306q0 20 -5 25t-25 5h-40v8zM200 8h150q127 0 213.5 96t86.5 246t-86.5 246t-213.5 96h-150q-20 0 -25 -5t-5 -25v-306h170v-12h-170v-306q0 -20 5 -25t25 -5z" />
    <glyph glyph-name="Ntilde" unicode="&#xd1;" horiz-adv-x="730" 
d="M497 861h8q0 -38 -18.5 -59.5t-49.5 -21.5q-25 0 -76.5 23t-74.5 23q-26 0 -39.5 -13t-13.5 -33h-8q0 38 19.5 59.5t52.5 21.5q26 0 74.5 -23t72.5 -23q26 0 39.5 13t13.5 33zM690 692h-38q-20 -1 -25 -6t-5 -24v-663l-8 1l-498 667v-629q0 -20 5 -25t25 -5h40v-8h-146v8
h38q20 0 25 5t5 25v624q0 20 -5 25t-25 5h-38v8h116l458 -620v582q0 20 -5 25t-25 5h-38v8h144v-8z" />
    <glyph glyph-name="Ograve" unicode="&#xd2;" horiz-adv-x="840" 
d="M330 900q28 0 48 -46q15 -35 36 -56t62 -42l-3 -6q-3 2 -37 18t-48 24.5l-38.5 24t-35 29t-10.5 26.5t7.5 20.5t18.5 7.5zM420 710q147 0 248.5 -102.5t101.5 -257.5t-101.5 -257.5t-248.5 -102.5t-248.5 102.5t-101.5 257.5t101.5 257.5t248.5 102.5zM420 702
q-126 0 -213 -100.5t-87 -251.5t87 -251.5t213 -100.5t213 100.5t87 251.5t-87 251.5t-213 100.5z" />
    <glyph glyph-name="Oacute" unicode="&#xd3;" horiz-adv-x="840" 
d="M530 900q11 0 18.5 -7.5t7.5 -20.5t-10.5 -26.5t-35 -29l-38.5 -24t-48 -24.5t-37 -18l-3 6q41 21 62 42t36 56q20 46 48 46zM420 710q147 0 248.5 -102.5t101.5 -257.5t-101.5 -257.5t-248.5 -102.5t-248.5 102.5t-101.5 257.5t101.5 257.5t248.5 102.5zM420 702
q-126 0 -213 -100.5t-87 -251.5t87 -251.5t213 -100.5t213 100.5t87 251.5t-87 251.5t-213 100.5z" />
    <glyph glyph-name="Ocircumflex" unicode="&#xd4;" horiz-adv-x="840" 
d="M416 900h9q21 -33 65.5 -78.5t81.5 -65.5l-4 -8q-98 43 -148 87q-47 -43 -148 -87l-4 8q37 20 82 65.5t66 78.5zM420 710q147 0 248.5 -102.5t101.5 -257.5t-101.5 -257.5t-248.5 -102.5t-248.5 102.5t-101.5 257.5t101.5 257.5t248.5 102.5zM420 702q-126 0 -213 -100.5
t-87 -251.5t87 -251.5t213 -100.5t213 100.5t87 251.5t-87 251.5t-213 100.5z" />
    <glyph glyph-name="Otilde" unicode="&#xd5;" horiz-adv-x="840" 
d="M552 861h8q0 -38 -18.5 -59.5t-49.5 -21.5q-25 0 -76.5 23t-74.5 23q-26 0 -39.5 -13t-13.5 -33h-8q0 38 19.5 59.5t52.5 21.5q26 0 74.5 -23t72.5 -23q26 0 39.5 13t13.5 33zM420 710q147 0 248.5 -102.5t101.5 -257.5t-101.5 -257.5t-248.5 -102.5t-248.5 102.5
t-101.5 257.5t101.5 257.5t248.5 102.5zM420 702q-126 0 -213 -100.5t-87 -251.5t87 -251.5t213 -100.5t213 100.5t87 251.5t-87 251.5t-213 100.5z" />
    <glyph glyph-name="Odieresis" unicode="&#xd6;" horiz-adv-x="840" 
d="M340 850q14 0 24.5 -10.5t10.5 -24.5t-10.5 -24.5t-24.5 -10.5t-24.5 10.5t-10.5 24.5t10.5 24.5t24.5 10.5zM500 850q14 0 24.5 -10.5t10.5 -24.5t-10.5 -24.5t-24.5 -10.5t-24.5 10.5t-10.5 24.5t10.5 24.5t24.5 10.5zM420 710q147 0 248.5 -102.5t101.5 -257.5
t-101.5 -257.5t-248.5 -102.5t-248.5 102.5t-101.5 257.5t101.5 257.5t248.5 102.5zM420 702q-126 0 -213 -100.5t-87 -251.5t87 -251.5t213 -100.5t213 100.5t87 251.5t-87 251.5t-213 100.5z" />
    <glyph glyph-name="multiply" unicode="&#xd7;" horiz-adv-x="440" 
d="M390 451l-161 -162l161 -162l-9 -9l-161 162l-161 -162l-9 9l161 162l-161 162l9 9l161 -162l161 162z" />
    <glyph glyph-name="Oslash" unicode="&#xd8;" horiz-adv-x="840" 
d="M640 790l-58 -119q86 -45 137 -129.5t51 -191.5q0 -155 -101.5 -257.5t-248.5 -102.5q-81 0 -152 34l-55 -114h-13l58 119q-86 45 -137 129.5t-51 191.5q0 155 101.5 257.5t248.5 102.5q81 0 152 -34l55 114h13zM120 350q0 -99 39.5 -179t106.5 -125l298 615
q-68 41 -144 41q-126 0 -213 -100.5t-87 -251.5zM420 -2q126 0 213 100.5t87 251.5q0 99 -39.5 179t-106.5 125l-298 -615q68 -41 144 -41z" />
    <glyph glyph-name="Ugrave" unicode="&#xd9;" horiz-adv-x="715" 
d="M275 900q28 0 48 -46q15 -35 36 -56t62 -42l-3 -6q-3 2 -37 18t-48 24.5l-38.5 24t-35 29t-10.5 26.5t7.5 20.5t18.5 7.5zM680 692h-38q-20 0 -25 -5t-5 -25v-437q0 -122 -70.5 -178.5t-176.5 -56.5q-265 0 -265 250v422q0 20 -5 25t-25 5h-40v8h190v-8h-40q-20 0 -25 -5
t-5 -25v-437q0 -227 215 -227q103 0 171 54.5t68 172.5v437q0 20 -5 25t-25 5h-38v8h144v-8z" />
    <glyph glyph-name="Uacute" unicode="&#xda;" horiz-adv-x="715" 
d="M475 900q11 0 18.5 -7.5t7.5 -20.5t-10.5 -26.5t-35 -29l-38.5 -24t-48 -24.5t-37 -18l-3 6q41 21 62 42t36 56q20 46 48 46zM680 692h-38q-20 0 -25 -5t-5 -25v-437q0 -122 -70.5 -178.5t-176.5 -56.5q-265 0 -265 250v422q0 20 -5 25t-25 5h-40v8h190v-8h-40
q-20 0 -25 -5t-5 -25v-437q0 -227 215 -227q103 0 171 54.5t68 172.5v437q0 20 -5 25t-25 5h-38v8h144v-8z" />
    <glyph glyph-name="Ucircumflex" unicode="&#xdb;" horiz-adv-x="715" 
d="M361 900h9q21 -33 65.5 -78.5t81.5 -65.5l-4 -8q-98 43 -148 87q-47 -43 -148 -87l-4 8q37 20 82 65.5t66 78.5zM680 692h-38q-20 0 -25 -5t-5 -25v-437q0 -122 -70.5 -178.5t-176.5 -56.5q-265 0 -265 250v422q0 20 -5 25t-25 5h-40v8h190v-8h-40q-20 0 -25 -5t-5 -25
v-437q0 -227 215 -227q103 0 171 54.5t68 172.5v437q0 20 -5 25t-25 5h-38v8h144v-8z" />
    <glyph glyph-name="Udieresis" unicode="&#xdc;" horiz-adv-x="715" 
d="M285 850q14 0 24.5 -10.5t10.5 -24.5t-10.5 -24.5t-24.5 -10.5t-24.5 10.5t-10.5 24.5t10.5 24.5t24.5 10.5zM445 850q14 0 24.5 -10.5t10.5 -24.5t-10.5 -24.5t-24.5 -10.5t-24.5 10.5t-10.5 24.5t10.5 24.5t24.5 10.5zM680 692h-38q-20 0 -25 -5t-5 -25v-437
q0 -122 -70.5 -178.5t-176.5 -56.5q-265 0 -265 250v422q0 20 -5 25t-25 5h-40v8h190v-8h-40q-20 0 -25 -5t-5 -25v-437q0 -227 215 -227q103 0 171 54.5t68 172.5v437q0 20 -5 25t-25 5h-38v8h144v-8z" />
    <glyph glyph-name="Yacute" unicode="&#xdd;" horiz-adv-x="670" 
d="M470 900q11 0 18.5 -7.5t7.5 -20.5t-10.5 -26.5t-35 -29l-38.5 -24t-48 -24.5t-37 -18l-3 6q41 21 62 42t36 56q20 46 48 46zM660 692h-25q-43 0 -61 -30l-214 -371v-253q0 -20 5 -25t25 -5h40v-8h-190v8h40q20 0 25 5t5 25v241l-211 383q-10 18 -20.5 24t-30.5 6h-38v8
h234v-8h-70q-15 0 -20 -4t-3.5 -9.5t8.5 -16.5l197 -362l207 359q10 19 6.5 26t-21.5 7h-73v8h185v-8z" />
    <glyph glyph-name="Thorn" unicode="&#xde;" horiz-adv-x="610" 
d="M240 692h-40q-20 0 -25 -5t-5 -25v-120h155q113 0 169 -52.5t56 -139.5t-56 -139.5t-169 -52.5h-155v-120q0 -20 5 -25t25 -5h40v-8h-190v8h40q20 0 25 5t5 25v624q0 20 -5 25t-25 5h-40v8h190v-8zM170 534v-368h155q88 0 131.5 44t43.5 140t-43.5 140t-131.5 44h-155z
" />
    <glyph glyph-name="germandbls" unicode="&#xdf;" horiz-adv-x="555" 
d="M275 750q66 0 113 -37.5t47 -102.5q0 -41 -21.5 -76t-46.5 -55.5t-46.5 -45t-21.5 -46.5q0 -27 22 -50t54 -41.5t64 -39t54 -52t22 -71.5q0 -60 -41 -101.5t-119 -41.5q-64 0 -103 36.5t-39 78.5q0 25 25 25t25 -25q0 -55 17 -81t75 -26q60 0 87.5 32.5t27.5 81.5
q0 36 -20.5 64t-50 45l-59 32.5t-50 38t-20.5 50.5q0 27 18 60.5t39.5 61t39.5 67.5t18 79q0 132 -110 132q-125 0 -125 -186v-556h-120v8h40q20 0 25 5t5 25v450h-70v12h70v34q0 106 48.5 161t126.5 55z" />
    <glyph glyph-name="agrave" unicode="&#xe0;" horiz-adv-x="490" 
d="M147 700q28 0 48 -46q15 -35 36 -56t62 -42l-3 -6q-3 2 -37 18t-48 24.5l-38.5 24t-35 29t-10.5 26.5t7.5 20.5t18.5 7.5zM237 510q95 0 131.5 -43t36.5 -122v-264q0 -70 36 -70q17 0 29 17l5 -5q-19 -29 -54 -29q-66 0 -66 89v51q-47 -144 -178 -144q-61 0 -99 31
t-38 81q0 30 15 58t48.5 55.5t98 48t153.5 28.5v73q0 27 -3 45t-13 42t-36 37t-66 13q-112 0 -112 -90v-17q0 -25 -25 -25t-25 25q0 41 45.5 78t116.5 37zM355 193v91q-80 -8 -134 -24.5t-81.5 -42t-38.5 -52.5t-11 -63q0 -43 26.5 -72.5t76.5 -29.5q73 0 117.5 61t44.5 132
z" />
    <glyph glyph-name="aacute" unicode="&#xe1;" horiz-adv-x="490" 
d="M347 700q11 0 18.5 -7.5t7.5 -20.5t-10.5 -26.5t-35 -29l-38.5 -24t-48 -24.5t-37 -18l-3 6q41 21 62 42t36 56q20 46 48 46zM237 510q95 0 131.5 -43t36.5 -122v-264q0 -70 36 -70q17 0 29 17l5 -5q-19 -29 -54 -29q-66 0 -66 89v51q-47 -144 -178 -144q-61 0 -99 31
t-38 81q0 30 15 58t48.5 55.5t98 48t153.5 28.5v73q0 27 -3 45t-13 42t-36 37t-66 13q-112 0 -112 -90v-17q0 -25 -25 -25t-25 25q0 41 45.5 78t116.5 37zM355 193v91q-80 -8 -134 -24.5t-81.5 -42t-38.5 -52.5t-11 -63q0 -43 26.5 -72.5t76.5 -29.5q73 0 117.5 61t44.5 132
z" />
    <glyph glyph-name="acircumflex" unicode="&#xe2;" horiz-adv-x="490" 
d="M233 700h9q21 -33 65.5 -78.5t81.5 -65.5l-4 -8q-98 43 -148 87q-47 -43 -148 -87l-4 8q37 20 82 65.5t66 78.5zM237 510q95 0 131.5 -43t36.5 -122v-264q0 -70 36 -70q17 0 29 17l5 -5q-19 -29 -54 -29q-66 0 -66 89v51q-47 -144 -178 -144q-61 0 -99 31t-38 81
q0 30 15 58t48.5 55.5t98 48t153.5 28.5v73q0 27 -3 45t-13 42t-36 37t-66 13q-112 0 -112 -90v-17q0 -25 -25 -25t-25 25q0 41 45.5 78t116.5 37zM355 193v91q-80 -8 -134 -24.5t-81.5 -42t-38.5 -52.5t-11 -63q0 -43 26.5 -72.5t76.5 -29.5q73 0 117.5 61t44.5 132z" />
    <glyph glyph-name="atilde" unicode="&#xe3;" horiz-adv-x="490" 
d="M369 661h8q0 -38 -18.5 -59.5t-49.5 -21.5q-25 0 -76.5 23t-74.5 23q-26 0 -39.5 -13t-13.5 -33h-8q0 38 19.5 59.5t52.5 21.5q26 0 74.5 -23t72.5 -23q26 0 39.5 13t13.5 33zM237 510q95 0 131.5 -43t36.5 -122v-264q0 -70 36 -70q17 0 29 17l5 -5q-19 -29 -54 -29
q-66 0 -66 89v51q-47 -144 -178 -144q-61 0 -99 31t-38 81q0 30 15 58t48.5 55.5t98 48t153.5 28.5v73q0 27 -3 45t-13 42t-36 37t-66 13q-112 0 -112 -90v-17q0 -25 -25 -25t-25 25q0 41 45.5 78t116.5 37zM355 193v91q-80 -8 -134 -24.5t-81.5 -42t-38.5 -52.5t-11 -63
q0 -43 26.5 -72.5t76.5 -29.5q73 0 117.5 61t44.5 132z" />
    <glyph glyph-name="adieresis" unicode="&#xe4;" horiz-adv-x="490" 
d="M157 650q14 0 24.5 -10.5t10.5 -24.5t-10.5 -24.5t-24.5 -10.5t-24.5 10.5t-10.5 24.5t10.5 24.5t24.5 10.5zM317 650q14 0 24.5 -10.5t10.5 -24.5t-10.5 -24.5t-24.5 -10.5t-24.5 10.5t-10.5 24.5t10.5 24.5t24.5 10.5zM237 510q95 0 131.5 -43t36.5 -122v-264
q0 -70 36 -70q17 0 29 17l5 -5q-19 -29 -54 -29q-66 0 -66 89v51q-47 -144 -178 -144q-61 0 -99 31t-38 81q0 30 15 58t48.5 55.5t98 48t153.5 28.5v73q0 27 -3 45t-13 42t-36 37t-66 13q-112 0 -112 -90v-17q0 -25 -25 -25t-25 25q0 41 45.5 78t116.5 37zM355 193v91
q-80 -8 -134 -24.5t-81.5 -42t-38.5 -52.5t-11 -63q0 -43 26.5 -72.5t76.5 -29.5q73 0 117.5 61t44.5 132z" />
    <glyph glyph-name="aring" unicode="&#xe5;" horiz-adv-x="490" 
d="M237 780q45 0 75 -30t30 -75t-30 -75t-75 -30t-75 30t-30 75t30 75t75 30zM237 768q-41 0 -67 -26t-26 -67t26 -67t67 -26t67 26t26 67t-26 67t-67 26zM237 510q95 0 131.5 -43t36.5 -122v-264q0 -70 36 -70q17 0 29 17l5 -5q-19 -29 -54 -29q-66 0 -66 89v51
q-47 -144 -178 -144q-61 0 -99 31t-38 81q0 30 15 58t48.5 55.5t98 48t153.5 28.5v73q0 27 -3 45t-13 42t-36 37t-66 13q-112 0 -112 -90v-17q0 -25 -25 -25t-25 25q0 41 45.5 78t116.5 37zM355 193v91q-80 -8 -134 -24.5t-81.5 -42t-38.5 -52.5t-11 -63q0 -43 26.5 -72.5
t76.5 -29.5q73 0 117.5 61t44.5 132z" />
    <glyph glyph-name="ae" unicode="&#xe6;" horiz-adv-x="810" 
d="M580 510q185 0 185 -226h-359q-1 -11 -1 -34q0 -116 46.5 -184t128.5 -68q123 0 180 99l5 -7q-58 -100 -185 -100q-79 0 -131 39.5t-76 106.5q-27 -67 -80 -106.5t-116 -39.5q-61 0 -99 31t-38 81q0 30 15 58t48.5 55.5t98 48t153.5 28.5v73q0 27 -3 45t-13 42t-36 37
t-66 13q-112 0 -112 -90v-17q0 -25 -25 -25t-25 25q0 41 45.5 78t116.5 37q134 0 160 -96q60 96 183 96zM580 502q-75 0 -120 -55.5t-53 -154.5h308q0 29 -1 49t-8.5 53.5t-20.5 54.5t-40 37t-65 16zM355 249v35q-80 -8 -134 -24.5t-81.5 -42t-38.5 -52.5t-11 -63
q0 -43 26 -72.5t75 -29.5q59 0 110 47.5t68 102.5q-14 48 -14 99z" />
    <glyph glyph-name="ccedilla" unicode="&#xe7;" horiz-adv-x="500" 
d="M270 -2q123 0 180 99l5 -7q-57 -98 -181 -100v-54q43 -1 71.5 -19t28.5 -55q0 -35 -26 -56.5t-72 -21.5q-34 0 -62 12l2 8q26 -12 59 -12q38 0 53.5 22t15.5 48t-17.5 46.5t-60.5 19.5v62q-73 1 -124.5 38.5t-74 94t-22.5 127.5q0 109 61.5 184.5t173.5 75.5
q72 0 126 -37.5t54 -77.5q0 -25 -25 -25t-25 25v10q0 36 -28.5 66.5t-101.5 30.5q-84 0 -134.5 -68.5t-50.5 -183.5q0 -117 46 -184.5t129 -67.5z" />
    <glyph glyph-name="egrave" unicode="&#xe8;" horiz-adv-x="500" 
d="M316 556l-3 -6q-3 2 -37 18t-48 24.5l-38.5 24t-35 29t-10.5 26.5t7.5 20.5t18.5 7.5q28 0 48 -46q15 -35 36 -56t62 -42zM270 -2q123 0 180 99l5 -7q-58 -100 -185 -100q-111 0 -168 74.5t-57 185.5t57 185.5t168 74.5q185 0 185 -226h-359q-1 -11 -1 -34
q0 -116 46.5 -184t128.5 -68zM270 502q-74 0 -119.5 -56t-53.5 -154h308q0 24 -1 40t-4 44.5t-12 47t-23 38.5t-38.5 30t-56.5 10z" />
    <glyph glyph-name="eacute" unicode="&#xe9;" horiz-adv-x="500" 
d="M396 672q0 -13 -10.5 -26.5t-35 -29l-38.5 -24t-48 -24.5t-37 -18l-3 6q41 21 62 42t36 56q20 46 48 46q11 0 18.5 -7.5t7.5 -20.5zM270 -2q123 0 180 99l5 -7q-58 -100 -185 -100q-111 0 -168 74.5t-57 185.5t57 185.5t168 74.5q185 0 185 -226h-359q-1 -11 -1 -34
q0 -116 46.5 -184t128.5 -68zM270 502q-74 0 -119.5 -56t-53.5 -154h308q0 24 -1 40t-4 44.5t-12 47t-23 38.5t-38.5 30t-56.5 10z" />
    <glyph glyph-name="ecircumflex" unicode="&#xea;" horiz-adv-x="500" 
d="M260 635q-47 -43 -148 -87l-4 8q37 20 82 65.5t66 78.5h9q21 -33 65.5 -78.5t81.5 -65.5l-4 -8q-98 43 -148 87zM270 -2q123 0 180 99l5 -7q-58 -100 -185 -100q-111 0 -168 74.5t-57 185.5t57 185.5t168 74.5q185 0 185 -226h-359q-1 -11 -1 -34q0 -116 46.5 -184
t128.5 -68zM270 502q-74 0 -119.5 -56t-53.5 -154h308q0 24 -1 40t-4 44.5t-12 47t-23 38.5t-38.5 30t-56.5 10z" />
    <glyph glyph-name="edieresis" unicode="&#xeb;" horiz-adv-x="500" 
d="M180 580q-14 0 -24.5 10.5t-10.5 24.5t10.5 24.5t24.5 10.5t24.5 -10.5t10.5 -24.5t-10.5 -24.5t-24.5 -10.5zM340 580q-14 0 -24.5 10.5t-10.5 24.5t10.5 24.5t24.5 10.5t24.5 -10.5t10.5 -24.5t-10.5 -24.5t-24.5 -10.5zM270 -2q123 0 180 99l5 -7q-58 -100 -185 -100
q-111 0 -168 74.5t-57 185.5t57 185.5t168 74.5q185 0 185 -226h-359q-1 -11 -1 -34q0 -116 46.5 -184t128.5 -68zM270 502q-74 0 -119.5 -56t-53.5 -154h308q0 24 -1 40t-4 44.5t-12 47t-23 38.5t-38.5 30t-56.5 10z" />
    <glyph glyph-name="igrave" unicode="&#xec;" horiz-adv-x="250" 
d="M35 700q28 0 48 -46q15 -35 36 -56t62 -42l-3 -6q-3 2 -37 18t-48 24.5l-38.5 24t-35 29t-10.5 26.5t7.5 20.5t18.5 7.5zM150 500v-462q0 -20 5 -25t25 -5h40v-8h-190v8h40q20 0 25 5t5 25v404q0 20 -6.5 27t-23.5 3l-40 -10v8z" />
    <glyph glyph-name="iacute" unicode="&#xed;" horiz-adv-x="250" 
d="M235 700q11 0 18.5 -7.5t7.5 -20.5t-10.5 -26.5t-35 -29l-38.5 -24t-48 -24.5t-37 -18l-3 6q41 21 62 42t36 56q20 46 48 46zM150 500v-462q0 -20 5 -25t25 -5h40v-8h-190v8h40q20 0 25 5t5 25v404q0 20 -6.5 27t-23.5 3l-40 -10v8z" />
    <glyph glyph-name="icircumflex" unicode="&#xee;" horiz-adv-x="250" 
d="M121 700h9q21 -33 65.5 -78.5t81.5 -65.5l-4 -8q-98 43 -148 87q-47 -43 -148 -87l-4 8q37 20 82 65.5t66 78.5zM150 500v-462q0 -20 5 -25t25 -5h40v-8h-190v8h40q20 0 25 5t5 25v404q0 20 -6.5 27t-23.5 3l-40 -10v8z" />
    <glyph glyph-name="idieresis" unicode="&#xef;" horiz-adv-x="250" 
d="M45 650q14 0 24.5 -10.5t10.5 -24.5t-10.5 -24.5t-24.5 -10.5t-24.5 10.5t-10.5 24.5t10.5 24.5t24.5 10.5zM205 650q14 0 24.5 -10.5t10.5 -24.5t-10.5 -24.5t-24.5 -10.5t-24.5 10.5t-10.5 24.5t10.5 24.5t24.5 10.5zM150 500v-462q0 -20 5 -25t25 -5h40v-8h-190v8h40
q20 0 25 5t5 25v404q0 20 -6.5 27t-23.5 3l-40 -10v8z" />
    <glyph glyph-name="eth" unicode="&#xf0;" horiz-adv-x="550" 
d="M303 860l-64 -110q120 -4 188 -118.5t68 -311.5q0 -154 -56 -242t-169 -88q-111 0 -168 74.5t-57 185.5q0 112 60.5 186t184.5 74q96 0 146 -41q-10 82 -29 137t-46.5 84t-57.5 40.5t-69 11.5l-86 -148l-11 6l83 142q-102 -5 -151 -97l-4 5q24 46 65.5 72t93.5 28l68 116
zM270 -2q175 0 175 282q0 94 -8 176q-49 46 -147 46q-96 0 -145.5 -67t-49.5 -185q0 -117 46 -184.5t129 -67.5z" />
    <glyph glyph-name="ntilde" unicode="&#xf1;" horiz-adv-x="590" 
d="M437 661h8q0 -38 -18.5 -59.5t-49.5 -21.5q-25 0 -76.5 23t-74.5 23q-26 0 -39.5 -13t-13.5 -33h-8q0 38 19.5 59.5t52.5 21.5q26 0 74.5 -23t72.5 -23q26 0 39.5 13t13.5 33zM315 510q86 0 130.5 -47t44.5 -128v-297q0 -20 5 -25t25 -5h40v-8h-190v8h40q20 0 25 5t5 25
v297q0 167 -125 167q-73 0 -119 -64.5t-46 -155.5v-244q0 -20 5 -25t25 -5h40v-8h-190v8h40q20 0 25 5t5 25v404q0 20 -6.5 27t-23.5 3l-40 -10v8l120 30v-150q16 77 62.5 118.5t102.5 41.5z" />
    <glyph glyph-name="ograve" unicode="&#xf2;" horiz-adv-x="540" 
d="M180 700q28 0 48 -46q15 -35 36 -56t62 -42l-3 -6q-3 2 -37 18t-48 24.5l-38.5 24t-35 29t-10.5 26.5t7.5 20.5t18.5 7.5zM270 510q111 0 168 -74.5t57 -185.5t-57 -185.5t-168 -74.5t-168 74.5t-57 185.5t57 185.5t168 74.5zM270 502q-83 0 -129 -67.5t-46 -184.5
t46 -184.5t129 -67.5q82 0 128.5 68t46.5 184t-46.5 184t-128.5 68z" />
    <glyph glyph-name="oacute" unicode="&#xf3;" horiz-adv-x="540" 
d="M380 700q11 0 18.5 -7.5t7.5 -20.5t-10.5 -26.5t-35 -29l-38.5 -24t-48 -24.5t-37 -18l-3 6q41 21 62 42t36 56q20 46 48 46zM270 510q111 0 168 -74.5t57 -185.5t-57 -185.5t-168 -74.5t-168 74.5t-57 185.5t57 185.5t168 74.5zM270 502q-83 0 -129 -67.5t-46 -184.5
t46 -184.5t129 -67.5q82 0 128.5 68t46.5 184t-46.5 184t-128.5 68z" />
    <glyph glyph-name="ocircumflex" unicode="&#xf4;" horiz-adv-x="540" 
d="M266 700h9q21 -33 65.5 -78.5t81.5 -65.5l-4 -8q-98 43 -148 87q-47 -43 -148 -87l-4 8q37 20 82 65.5t66 78.5zM270 510q111 0 168 -74.5t57 -185.5t-57 -185.5t-168 -74.5t-168 74.5t-57 185.5t57 185.5t168 74.5zM270 502q-83 0 -129 -67.5t-46 -184.5t46 -184.5
t129 -67.5q82 0 128.5 68t46.5 184t-46.5 184t-128.5 68z" />
    <glyph glyph-name="otilde" unicode="&#xf5;" horiz-adv-x="540" 
d="M402 661h8q0 -38 -18.5 -59.5t-49.5 -21.5q-25 0 -76.5 23t-74.5 23q-26 0 -39.5 -13t-13.5 -33h-8q0 38 19.5 59.5t52.5 21.5q26 0 74.5 -23t72.5 -23q26 0 39.5 13t13.5 33zM270 510q111 0 168 -74.5t57 -185.5t-57 -185.5t-168 -74.5t-168 74.5t-57 185.5t57 185.5
t168 74.5zM270 502q-83 0 -129 -67.5t-46 -184.5t46 -184.5t129 -67.5q82 0 128.5 68t46.5 184t-46.5 184t-128.5 68z" />
    <glyph glyph-name="odieresis" unicode="&#xf6;" horiz-adv-x="540" 
d="M190 650q14 0 24.5 -10.5t10.5 -24.5t-10.5 -24.5t-24.5 -10.5t-24.5 10.5t-10.5 24.5t10.5 24.5t24.5 10.5zM350 650q14 0 24.5 -10.5t10.5 -24.5t-10.5 -24.5t-24.5 -10.5t-24.5 10.5t-10.5 24.5t10.5 24.5t24.5 10.5zM270 510q111 0 168 -74.5t57 -185.5t-57 -185.5
t-168 -74.5t-168 74.5t-57 185.5t57 185.5t168 74.5zM270 502q-83 0 -129 -67.5t-46 -184.5t46 -184.5t129 -67.5q82 0 128.5 68t46.5 184t-46.5 184t-128.5 68z" />
    <glyph glyph-name="divide" unicode="&#xf7;" horiz-adv-x="470" 
d="M235 435q13 0 21.5 -8.5t8.5 -21.5t-8.5 -21.5t-21.5 -8.5q-30 0 -30 30q0 13 8 21.5t22 8.5zM420 293h-370v12h370v-12zM235 223q13 0 21.5 -8.5t8.5 -21.5t-8.5 -21.5t-21.5 -8.5q-30 0 -30 30q0 13 8 21.5t22 8.5z" />
    <glyph glyph-name="oslash" unicode="&#xf8;" horiz-adv-x="540" 
d="M440 500l-26 -40q81 -71 81 -210q0 -111 -57 -185.5t-168 -74.5q-80 0 -136 43l-21 -33h-13l26 40q-81 71 -81 210q0 111 57 185.5t168 74.5q80 0 136 -43l21 33h13zM95 250q0 -119 47 -186l249 381q-46 57 -121 57q-83 0 -129 -67.5t-46 -184.5zM270 -2q82 0 128.5 68
t46.5 184t-47 185l-249 -380q45 -57 121 -57z" />
    <glyph glyph-name="ugrave" unicode="&#xf9;" horiz-adv-x="590" 
d="M200 700q28 0 48 -46q15 -35 36 -56t62 -42l-3 -6q-3 2 -37 18t-48 24.5l-38.5 24t-35 29t-10.5 26.5t7.5 20.5t18.5 7.5zM490 500v-462q0 -20 5 -25t25 -5h40v-8h-120v151q-15 -77 -62 -119t-103 -42q-86 0 -130.5 47t-44.5 128v277q0 20 -6.5 27t-23.5 3l-40 -10v8
l120 30v-335q0 -167 125 -167q73 0 119 65t46 156v223q0 20 -6.5 27t-23.5 3l-40 -10v8z" />
    <glyph glyph-name="uacute" unicode="&#xfa;" horiz-adv-x="590" 
d="M400 700q11 0 18.5 -7.5t7.5 -20.5t-10.5 -26.5t-35 -29l-38.5 -24t-48 -24.5t-37 -18l-3 6q41 21 62 42t36 56q20 46 48 46zM490 500v-462q0 -20 5 -25t25 -5h40v-8h-120v151q-15 -77 -62 -119t-103 -42q-86 0 -130.5 47t-44.5 128v277q0 20 -6.5 27t-23.5 3l-40 -10v8
l120 30v-335q0 -167 125 -167q73 0 119 65t46 156v223q0 20 -6.5 27t-23.5 3l-40 -10v8z" />
    <glyph glyph-name="ucircumflex" unicode="&#xfb;" horiz-adv-x="590" 
d="M286 700h9q21 -33 65.5 -78.5t81.5 -65.5l-4 -8q-98 43 -148 87q-47 -43 -148 -87l-4 8q37 20 82 65.5t66 78.5zM490 500v-462q0 -20 5 -25t25 -5h40v-8h-120v151q-15 -77 -62 -119t-103 -42q-86 0 -130.5 47t-44.5 128v277q0 20 -6.5 27t-23.5 3l-40 -10v8l120 30v-335
q0 -167 125 -167q73 0 119 65t46 156v223q0 20 -6.5 27t-23.5 3l-40 -10v8z" />
    <glyph glyph-name="udieresis" unicode="&#xfc;" horiz-adv-x="590" 
d="M210 650q14 0 24.5 -10.5t10.5 -24.5t-10.5 -24.5t-24.5 -10.5t-24.5 10.5t-10.5 24.5t10.5 24.5t24.5 10.5zM370 650q14 0 24.5 -10.5t10.5 -24.5t-10.5 -24.5t-24.5 -10.5t-24.5 10.5t-10.5 24.5t10.5 24.5t24.5 10.5zM490 500v-462q0 -20 5 -25t25 -5h40v-8h-120v151
q-15 -77 -62 -119t-103 -42q-86 0 -130.5 47t-44.5 128v277q0 20 -6.5 27t-23.5 3l-40 -10v8l120 30v-335q0 -167 125 -167q73 0 119 65t46 156v223q0 20 -6.5 27t-23.5 3l-40 -10v8z" />
    <glyph glyph-name="yacute" unicode="&#xfd;" horiz-adv-x="565" 
d="M410 700q11 0 18.5 -7.5t7.5 -20.5t-10.5 -26.5t-35 -29l-38.5 -24t-48 -24.5t-37 -18l-3 6q41 21 62 42t36 56q20 46 48 46zM555 492h-48q-20 0 -26.5 -5t-14.5 -25l-174 -472q-41 -112 -94.5 -176t-109.5 -64q-31 0 -48 15.5t-17 34.5q0 25 25 25t25 -25
q0 -5 -2.5 -13.5t-2.5 -12.5q0 -16 20 -16q52 0 104 61.5t92 170.5l-186 472q-8 20 -15 25t-28 5h-45v8h234v-8h-76q-16 0 -19 -7t4 -23l156 -404l148 404q6 16 2.5 23t-17.5 7h-82v8h195v-8z" />
    <glyph glyph-name="thorn" unicode="&#xfe;" horiz-adv-x="555" 
d="M150 750v-404q15 79 62 121.5t103 42.5q94 0 144.5 -70.5t50.5 -189.5t-50.5 -189.5t-144.5 -70.5q-56 0 -103 43t-62 121v-356q0 -20 5 -25t25 -5h40v-8h-190v8h40q20 0 25 5t5 25v894q0 20 -6.5 27t-23.5 3l-40 -10v8zM315 502q-73 0 -119 -65t-46 -159v-56
q0 -94 46 -159t119 -65t109 67.5t36 184.5t-36 184.5t-109 67.5z" />
    <glyph glyph-name="ydieresis" unicode="&#xff;" horiz-adv-x="565" 
d="M220 650q14 0 24.5 -10.5t10.5 -24.5t-10.5 -24.5t-24.5 -10.5t-24.5 10.5t-10.5 24.5t10.5 24.5t24.5 10.5zM380 650q14 0 24.5 -10.5t10.5 -24.5t-10.5 -24.5t-24.5 -10.5t-24.5 10.5t-10.5 24.5t10.5 24.5t24.5 10.5zM555 492h-48q-20 0 -26.5 -5t-14.5 -25l-174 -472
q-41 -112 -94.5 -176t-109.5 -64q-31 0 -48 15.5t-17 34.5q0 25 25 25t25 -25q0 -5 -2.5 -13.5t-2.5 -12.5q0 -16 20 -16q52 0 104 61.5t92 170.5l-186 472q-8 20 -15 25t-28 5h-45v8h234v-8h-76q-16 0 -19 -7t4 -23l156 -404l148 404q6 16 2.5 23t-17.5 7h-82v8h195v-8z
" />
    <glyph glyph-name="Amacron" unicode="&#x100;" horiz-adv-x="710" 
d="M471 800h-250v12h250v-12zM705 8v-8h-200v8h53q16 0 19 7t-4 23l-82 195h-325l-76 -193q-12 -32 15 -32h60v-8h-160v8h35q20 0 26.5 4.5t14.5 25.5l261 667h8l278 -667q8 -19 17 -24.5t29 -5.5h31zM488 241l-165 392l-154 -392h319z" />
    <glyph glyph-name="amacron" unicode="&#x101;" horiz-adv-x="490" 
d="M362 600h-250v12h250v-12zM237 510q95 0 131.5 -43t36.5 -122v-264q0 -70 36 -70q17 0 29 17l5 -5q-19 -29 -54 -29q-66 0 -66 89v51q-47 -144 -178 -144q-61 0 -99 31t-38 81q0 30 15 58t48.5 55.5t98 48t153.5 28.5v73q0 27 -3 45t-13 42t-36 37t-66 13
q-112 0 -112 -90v-17q0 -25 -25 -25t-25 25q0 41 45.5 78t116.5 37zM355 193v91q-80 -8 -134 -24.5t-81.5 -42t-38.5 -52.5t-11 -63q0 -43 26.5 -72.5t76.5 -29.5q73 0 117.5 61t44.5 132z" />
    <glyph glyph-name="Abreve" unicode="&#x102;" horiz-adv-x="710" 
d="M345 750q-48 0 -81 33t-44 100h8q7 -38 33.5 -65.5t83.5 -27.5q58 0 86.5 27.5t35.5 65.5h8q-11 -67 -46 -100t-84 -33zM705 8v-8h-200v8h53q16 0 19 7t-4 23l-82 195h-325l-76 -193q-12 -32 15 -32h60v-8h-160v8h35q20 0 26.5 4.5t14.5 25.5l261 667h8l278 -667
q8 -19 17 -24.5t29 -5.5h31zM488 241l-165 392l-154 -392h319z" />
    <glyph glyph-name="abreve" unicode="&#x103;" horiz-adv-x="490" 
d="M358 683h8q-11 -67 -46 -100t-84 -33q-48 0 -81 33t-44 100h8q7 -38 33.5 -65.5t83.5 -27.5q58 0 86.5 27.5t35.5 65.5zM237 510q95 0 131.5 -43t36.5 -122v-264q0 -70 36 -70q17 0 29 17l5 -5q-19 -29 -54 -29q-66 0 -66 89v51q-47 -144 -178 -144q-61 0 -99 31t-38 81
q0 30 15 58t48.5 55.5t98 48t153.5 28.5v73q0 27 -3 45t-13 42t-36 37t-66 13q-112 0 -112 -90v-17q0 -25 -25 -25t-25 25q0 41 45.5 78t116.5 37zM355 193v91q-80 -8 -134 -24.5t-81.5 -42t-38.5 -52.5t-11 -63q0 -43 26.5 -72.5t76.5 -29.5q73 0 117.5 61t44.5 132z" />
    <glyph glyph-name="Aogonek" unicode="&#x104;" horiz-adv-x="710" 
d="M705 0h-66q-31 -25 -54 -62.5t-23 -67.5q0 -25 14.5 -40.5t38.5 -15.5q33 0 61 21l1 -6q-27 -29 -73 -29q-30 0 -51 16t-21 49q0 63 99 135h-126v8h53q16 0 19 7t-4 23l-82 195h-325l-76 -193q-12 -32 15 -32h60v-8h-160v8h35q20 0 26.5 4.5t14.5 25.5l261 667h8
l278 -667q8 -19 17 -24.5t29 -5.5h31v-8zM488 241l-165 392l-154 -392h319z" />
    <glyph glyph-name="aogonek" unicode="&#x105;" horiz-adv-x="490" 
d="M237 510q95 0 131.5 -43t36.5 -122v-264q0 -70 36 -70q16 0 30 17l4 -5q-31 -35 -46.5 -54.5t-29.5 -47.5t-14 -51q0 -25 14.5 -40.5t38.5 -15.5q33 0 60 20l2 -5q-27 -29 -73 -29q-30 0 -51 16t-21 49q0 22 17.5 50.5t30.5 42t41 40.5q-12 -4 -23 -4q-66 0 -66 89v51
q-47 -144 -178 -144q-61 0 -99 31t-38 81q0 30 15 58t48.5 55.5t98 48t153.5 28.5v73q0 27 -3 45t-13 42t-36 37t-66 13q-112 0 -112 -90v-17q0 -25 -25 -25t-25 25q0 41 45.5 78t116.5 37zM355 193v91q-80 -8 -134 -24.5t-81.5 -42t-38.5 -52.5t-11 -63q0 -43 26.5 -72.5
t76.5 -29.5q73 0 117.5 61t44.5 132z" />
    <glyph glyph-name="Cacute" unicode="&#x106;" horiz-adv-x="740" 
d="M530 900q11 0 18.5 -7.5t7.5 -20.5t-10.5 -26.5t-35 -29l-38.5 -24t-48 -24.5t-37 -18l-3 6q41 21 62 42t36 56q20 46 48 46zM420 710q46 0 89.5 -10t68.5 -22.5l45.5 -22.5t27.5 -10q11 0 11 15v40h8v-175h-8l-2 10q-34 167 -240 167q-126 0 -213 -100.5t-87 -251.5
t87 -251.5t213 -100.5q206 0 240 167l2 10h8v-175h-8v40q0 15 -11 15q-7 0 -27.5 -10l-45.5 -22.5t-68.5 -22.5t-89.5 -10q-147 0 -248.5 102.5t-101.5 257.5t101.5 257.5t248.5 102.5z" />
    <glyph glyph-name="cacute" unicode="&#x107;" horiz-adv-x="500" 
d="M390 700q11 0 18.5 -7.5t7.5 -20.5t-10.5 -26.5t-35 -29l-38.5 -24t-48 -24.5t-37 -18l-3 6q41 21 62 42t36 56q20 46 48 46zM280 510q72 0 126 -37.5t54 -77.5q0 -25 -25 -25t-25 25v10q0 36 -28.5 66.5t-101.5 30.5q-84 0 -134.5 -68.5t-50.5 -183.5q0 -117 46 -184.5
t129 -67.5q123 0 180 99l5 -7q-58 -100 -185 -100q-111 0 -168 74.5t-57 185.5q0 109 61.5 184.5t173.5 75.5z" />
    <glyph glyph-name="Cdotaccent" unicode="&#x10a;" horiz-adv-x="740" 
d="M420 850q14 0 24.5 -10.5t10.5 -24.5t-10.5 -24.5t-24.5 -10.5t-24.5 10.5t-10.5 24.5t10.5 24.5t24.5 10.5zM420 710q46 0 89.5 -10t68.5 -22.5l45.5 -22.5t27.5 -10q11 0 11 15v40h8v-175h-8l-2 10q-34 167 -240 167q-126 0 -213 -100.5t-87 -251.5t87 -251.5
t213 -100.5q206 0 240 167l2 10h8v-175h-8v40q0 15 -11 15q-7 0 -27.5 -10l-45.5 -22.5t-68.5 -22.5t-89.5 -10q-147 0 -248.5 102.5t-101.5 257.5t101.5 257.5t248.5 102.5z" />
    <glyph glyph-name="cdotaccent" unicode="&#x10b;" horiz-adv-x="500" 
d="M280 650q14 0 24.5 -10.5t10.5 -24.5t-10.5 -24.5t-24.5 -10.5t-24.5 10.5t-10.5 24.5t10.5 24.5t24.5 10.5zM280 510q72 0 126 -37.5t54 -77.5q0 -25 -25 -25t-25 25v10q0 36 -28.5 66.5t-101.5 30.5q-84 0 -134.5 -68.5t-50.5 -183.5q0 -117 46 -184.5t129 -67.5
q123 0 180 99l5 -7q-58 -100 -185 -100q-111 0 -168 74.5t-57 185.5q0 109 61.5 184.5t173.5 75.5z" />
    <glyph glyph-name="Ccaron" unicode="&#x10c;" horiz-adv-x="740" 
d="M568 900l4 -8q-37 -20 -81.5 -65.5t-65.5 -78.5h-9q-21 33 -66 78.5t-82 65.5l4 8q101 -44 148 -87q50 44 148 87zM420 710q46 0 89.5 -10t68.5 -22.5l45.5 -22.5t27.5 -10q11 0 11 15v40h8v-175h-8l-2 10q-34 167 -240 167q-126 0 -213 -100.5t-87 -251.5t87 -251.5
t213 -100.5q206 0 240 167l2 10h8v-175h-8v40q0 15 -11 15q-7 0 -27.5 -10l-45.5 -22.5t-68.5 -22.5t-89.5 -10q-147 0 -248.5 102.5t-101.5 257.5t101.5 257.5t248.5 102.5z" />
    <glyph glyph-name="ccaron" unicode="&#x10d;" horiz-adv-x="500" 
d="M428 700l4 -8q-37 -20 -81.5 -65.5t-65.5 -78.5h-9q-21 33 -66 78.5t-82 65.5l4 8q101 -44 148 -87q50 44 148 87zM280 510q72 0 126 -37.5t54 -77.5q0 -25 -25 -25t-25 25v10q0 36 -28.5 66.5t-101.5 30.5q-84 0 -134.5 -68.5t-50.5 -183.5q0 -117 46 -184.5t129 -67.5
q123 0 180 99l5 -7q-58 -100 -185 -100q-111 0 -168 74.5t-57 185.5q0 109 61.5 184.5t173.5 75.5z" />
    <glyph glyph-name="Dcaron" unicode="&#x10e;" horiz-adv-x="770" 
d="M498 900l4 -8q-37 -20 -81.5 -65.5t-65.5 -78.5h-9q-21 33 -66 78.5t-82 65.5l4 8q101 -44 148 -87q50 44 148 87zM50 700h300q148 0 249 -98t101 -252t-101 -252t-249 -98h-300v8h40q20 0 25 5t5 25v624q0 20 -5 25t-25 5h-40v8zM350 692h-150q-20 0 -25 -5t-5 -25v-624
q0 -20 5 -25t25 -5h150q127 0 213.5 96t86.5 246t-86.5 246t-213.5 96z" />
    <glyph glyph-name="dcaron" unicode="&#x10f;" horiz-adv-x="585" 
d="M455 750v-712q0 -20 5.5 -25t24.5 -5h40v-8h-120v154q-15 -78 -62 -121t-103 -43q-94 0 -144.5 70.5t-50.5 189.5t50.5 189.5t144.5 70.5q56 0 103 -42.5t62 -121.5v346q0 20 -6.5 27t-23.5 3l-40 -10v8zM535 750q30 0 30 -45q0 -81 -57 -125l-5 6q21 16 34.5 40.5
t13.5 43.5q0 20 -18 20q-12 0 -20 8.5t-8 21.5t8 21.5t22 8.5zM240 502q-73 0 -109 -67.5t-36 -184.5t36 -184.5t109 -67.5t119 65t46 159v56q0 94 -46 159t-119 65z" />
    <glyph glyph-name="Dcroat" unicode="&#x110;" horiz-adv-x="770" 
d="M50 700h300q148 0 249 -98t101 -252t-101 -252t-249 -98h-300v8h40q20 0 25 5t5 25v306h-70v12h70v306q0 20 -5 25t-25 5h-40v8zM200 8h150q127 0 213.5 96t86.5 246t-86.5 246t-213.5 96h-150q-20 0 -25 -5t-5 -25v-306h170v-12h-170v-306q0 -20 5 -25t25 -5z" />
    <glyph glyph-name="dcroat" unicode="&#x111;" horiz-adv-x="555" 
d="M455 605v-567q0 -20 5.5 -25t24.5 -5h40v-8h-120v154q-15 -78 -62 -121t-103 -43q-94 0 -144.5 70.5t-50.5 189.5t50.5 189.5t144.5 70.5q56 0 103 -42.5t62 -121.5v259h-90v12h90v75q0 20 -6.5 27t-23.5 3l-40 -10v8l120 30v-133h70v-12h-70zM405 222v56q0 94 -46 159
t-119 65t-109 -67.5t-36 -184.5t36 -184.5t109 -67.5t119 65t46 159z" />
    <glyph glyph-name="Emacron" unicode="&#x112;" horiz-adv-x="645" 
d="M455 800h-250v12h250v-12zM575 164v-164h-525v8h40q20 0 25 5t5 25v624q0 20 -5 25t-25 5h-40v8h500v-164h-8v30q0 126 -106 126h-236q-20 0 -25 -5t-5 -25v-300h166q106 0 106 88v30h8v-244h-8v30q0 88 -106 88h-166v-316q0 -20 5 -25t25 -5h261q106 0 106 126v30h8z
" />
    <glyph glyph-name="emacron" unicode="&#x113;" horiz-adv-x="500" 
d="M385 600h-250v12h250v-12zM270 -2q123 0 180 99l5 -7q-58 -100 -185 -100q-111 0 -168 74.5t-57 185.5t57 185.5t168 74.5q185 0 185 -226h-359q-1 -11 -1 -34q0 -116 46.5 -184t128.5 -68zM270 502q-74 0 -119.5 -56t-53.5 -154h308q0 24 -1 40t-4 44.5t-12 47t-23 38.5
t-38.5 30t-56.5 10z" />
    <glyph glyph-name="Edotaccent" unicode="&#x116;" horiz-adv-x="645" 
d="M330 780q-14 0 -24.5 10.5t-10.5 24.5t10.5 24.5t24.5 10.5t24.5 -10.5t10.5 -24.5t-10.5 -24.5t-24.5 -10.5zM575 164v-164h-525v8h40q20 0 25 5t5 25v624q0 20 -5 25t-25 5h-40v8h500v-164h-8v30q0 126 -106 126h-236q-20 0 -25 -5t-5 -25v-300h166q106 0 106 88v30h8
v-244h-8v30q0 88 -106 88h-166v-316q0 -20 5 -25t25 -5h261q106 0 106 126v30h8z" />
    <glyph glyph-name="edotaccent" unicode="&#x117;" horiz-adv-x="500" 
d="M260 580q-14 0 -24.5 10.5t-10.5 24.5t10.5 24.5t24.5 10.5t24.5 -10.5t10.5 -24.5t-10.5 -24.5t-24.5 -10.5zM270 -2q123 0 180 99l5 -7q-58 -100 -185 -100q-111 0 -168 74.5t-57 185.5t57 185.5t168 74.5q185 0 185 -226h-359q-1 -11 -1 -34q0 -116 46.5 -184
t128.5 -68zM270 502q-74 0 -119.5 -56t-53.5 -154h308q0 24 -1 40t-4 44.5t-12 47t-23 38.5t-38.5 30t-56.5 10z" />
    <glyph glyph-name="Eogonek" unicode="&#x118;" horiz-adv-x="645" 
d="M612 -165l1 -6q-27 -29 -73 -29q-30 0 -51 16t-21 49q0 63 99 135h-517v8h40q20 0 25 5t5 25v624q0 20 -5 25t-25 5h-40v8h500v-164h-8v30q0 126 -106 126h-236q-20 0 -25 -5t-5 -25v-300h166q106 0 106 88v30h8v-244h-8v30q0 88 -106 88h-166v-316q0 -20 5 -25t25 -5
h261q106 0 106 126v30h8v-164q-31 -25 -54 -62.5t-23 -67.5q0 -25 14.5 -40.5t38.5 -15.5q33 0 61 21z" />
    <glyph glyph-name="eogonek" unicode="&#x119;" horiz-adv-x="500" 
d="M270 510q185 0 185 -226h-359q-1 -11 -1 -34q0 -116 46.5 -184t128.5 -68q124 0 180 98l5 -6q-21 -37 -58 -64q-31 -23 -59 -69t-28 -77q0 -25 14.5 -40.5t38.5 -15.5q33 0 60 20l2 -5q-27 -29 -73 -29q-30 0 -51 16t-21 49q0 63 88 135q-43 -20 -98 -20
q-111 0 -168 74.5t-57 185.5t57 185.5t168 74.5zM270 502q-75 0 -120 -55.5t-53 -154.5h308q0 29 -1 49t-8.5 53.5t-20.5 54.5t-40 37t-65 16z" />
    <glyph glyph-name="Ecaron" unicode="&#x11a;" horiz-adv-x="645" 
d="M335 748h-9q-21 33 -66 78.5t-82 65.5l4 8q101 -44 148 -87q50 44 148 87l4 -8q-37 -20 -81.5 -65.5t-65.5 -78.5zM575 164v-164h-525v8h40q20 0 25 5t5 25v624q0 20 -5 25t-25 5h-40v8h500v-164h-8v30q0 126 -106 126h-236q-20 0 -25 -5t-5 -25v-300h166q106 0 106 88
v30h8v-244h-8v30q0 88 -106 88h-166v-316q0 -20 5 -25t25 -5h261q106 0 106 126v30h8z" />
    <glyph glyph-name="ecaron" unicode="&#x11b;" horiz-adv-x="500" 
d="M265 548h-9q-21 33 -66 78.5t-82 65.5l4 8q101 -44 148 -87q50 44 148 87l4 -8q-37 -20 -81.5 -65.5t-65.5 -78.5zM270 -2q123 0 180 99l5 -7q-58 -100 -185 -100q-111 0 -168 74.5t-57 185.5t57 185.5t168 74.5q185 0 185 -226h-359q-1 -11 -1 -34q0 -116 46.5 -184
t128.5 -68zM270 502q-74 0 -119.5 -56t-53.5 -154h308q0 24 -1 40t-4 44.5t-12 47t-23 38.5t-38.5 30t-56.5 10z" />
    <glyph glyph-name="Gbreve" unicode="&#x11e;" horiz-adv-x="820" 
d="M541 883h8q-11 -67 -46 -100t-84 -33q-48 0 -81 33t-44 100h8q7 -38 33.5 -65.5t83.5 -27.5q58 0 86.5 27.5t35.5 65.5zM420 710q46 0 89.5 -10t68.5 -22.5l45.5 -22.5t27.5 -10q11 0 11 15v40h8v-175h-8l-2 10q-34 167 -240 167q-126 0 -213 -100.5t-87 -251.5
t87 -251.5t213 -100.5q113 0 171.5 50.5t58.5 161.5v102q0 20 -5 25t-25 5h-40v8h190v-8h-40q-20 0 -25 -5t-5 -25v-102q0 -93 -77.5 -156.5t-202.5 -63.5q-147 0 -248.5 102.5t-101.5 257.5t101.5 257.5t248.5 102.5z" />
    <glyph glyph-name="gbreve" unicode="&#x11f;" horiz-adv-x="470" 
d="M234 550q-48 0 -81 33t-44 100h8q7 -38 33.5 -65.5t83.5 -27.5q58 0 86.5 27.5t35.5 65.5h8q-11 -67 -46 -100t-84 -33zM320 75q74 0 112 -37.5t38 -87.5q0 -73 -71.5 -136.5t-176.5 -63.5q-96 0 -154 41t-58 109q0 38 29 70.5t78 50.5q-37 10 -57 35.5t-20 61.5
q0 59 68 111q-43 46 -43 116q0 74 47.5 119.5t122.5 45.5q46 0 86 -19q44 39 89 39q50 0 50 -31q0 -22 -22 -22q-13 0 -19.5 10.5t-11.5 20.5t-15 10q-25 0 -64 -31q77 -45 77 -142q0 -74 -47.5 -119.5t-122.5 -45.5q-74 0 -121 44q-62 -44 -62 -90q0 -42 26.5 -55.5
t84.5 -13.5q39 0 84 5t73 5zM235 502q-56 0 -88 -42.5t-32 -114.5t32 -114.5t88 -42.5t88 42.5t32 114.5t-32 114.5t-88 42.5zM222 -242q100 0 156.5 50.5t56.5 107.5q0 109 -116 109q-37 0 -84.5 -5t-71.5 -5q-19 0 -34 3q-79 -27 -79 -123q0 -53 43 -95t129 -42z" />
    <glyph glyph-name="Gdotaccent" unicode="&#x120;" horiz-adv-x="820" 
d="M420 850q14 0 24.5 -10.5t10.5 -24.5t-10.5 -24.5t-24.5 -10.5t-24.5 10.5t-10.5 24.5t10.5 24.5t24.5 10.5zM420 710q46 0 89.5 -10t68.5 -22.5l45.5 -22.5t27.5 -10q11 0 11 15v40h8v-175h-8l-2 10q-34 167 -240 167q-126 0 -213 -100.5t-87 -251.5t87 -251.5
t213 -100.5q113 0 171.5 50.5t58.5 161.5v102q0 20 -5 25t-25 5h-40v8h190v-8h-40q-20 0 -25 -5t-5 -25v-102q0 -93 -77.5 -156.5t-202.5 -63.5q-147 0 -248.5 102.5t-101.5 257.5t101.5 257.5t248.5 102.5z" />
    <glyph glyph-name="gdotaccent" unicode="&#x121;" horiz-adv-x="470" 
d="M235 580q-14 0 -24.5 10.5t-10.5 24.5t10.5 24.5t24.5 10.5t24.5 -10.5t10.5 -24.5t-10.5 -24.5t-24.5 -10.5zM320 75q74 0 112 -37.5t38 -87.5q0 -73 -71.5 -136.5t-176.5 -63.5q-96 0 -154 41t-58 109q0 38 29 70.5t78 50.5q-37 10 -57 35.5t-20 61.5q0 59 68 111
q-43 46 -43 116q0 74 47.5 119.5t122.5 45.5q46 0 86 -19q44 39 89 39q50 0 50 -31q0 -22 -22 -22q-13 0 -19.5 10.5t-11.5 20.5t-15 10q-25 0 -64 -31q77 -45 77 -142q0 -74 -47.5 -119.5t-122.5 -45.5q-74 0 -121 44q-62 -44 -62 -90q0 -42 26.5 -55.5t84.5 -13.5
q39 0 84 5t73 5zM235 502q-56 0 -88 -42.5t-32 -114.5t32 -114.5t88 -42.5t88 42.5t32 114.5t-32 114.5t-88 42.5zM222 -242q100 0 156.5 50.5t56.5 107.5q0 109 -116 109q-37 0 -84.5 -5t-71.5 -5q-19 0 -34 3q-79 -27 -79 -123q0 -53 43 -95t129 -42z" />
    <glyph glyph-name="Gcommaaccent" unicode="&#x122;" horiz-adv-x="820" 
d="M420 710q46 0 89.5 -10t68.5 -22.5l45.5 -22.5t27.5 -10q11 0 11 15v40h8v-175h-8l-2 10q-34 167 -240 167q-126 0 -213 -100.5t-87 -251.5t87 -251.5t213 -100.5q113 0 171.5 50.5t58.5 161.5v102q0 20 -5 25t-25 5h-40v8h190v-8h-40q-20 0 -25 -5t-5 -25v-102
q0 -93 -77.5 -156.5t-202.5 -63.5q-147 0 -248.5 102.5t-101.5 257.5t101.5 257.5t248.5 102.5zM420 -66q30 0 30 -45q0 -44 -18 -64.5t-42 -20.5v8q21 0 34.5 15t13.5 31t-18 16q-30 0 -30 30q0 13 8 21.5t22 8.5z" />
    <glyph glyph-name="gcommaaccent" unicode="&#x123;" horiz-adv-x="470" 
d="M235 560q-30 0 -30 45q0 44 18 64.5t42 20.5v-8q-20 0 -33.5 -15t-13.5 -31t17 -16q30 0 30 -30q0 -13 -8 -21.5t-22 -8.5zM320 75q74 0 112 -37.5t38 -87.5q0 -73 -71.5 -136.5t-176.5 -63.5q-96 0 -154 41t-58 109q0 38 29 70.5t78 50.5q-37 10 -57 35.5t-20 61.5
q0 59 68 111q-43 46 -43 116q0 74 47.5 119.5t122.5 45.5q46 0 86 -19q44 39 89 39q50 0 50 -31q0 -22 -22 -22q-13 0 -19.5 10.5t-11.5 20.5t-15 10q-25 0 -64 -31q77 -45 77 -142q0 -74 -47.5 -119.5t-122.5 -45.5q-74 0 -121 44q-62 -44 -62 -90q0 -42 26.5 -55.5
t84.5 -13.5q39 0 84 5t73 5zM235 502q-56 0 -88 -42.5t-32 -114.5t32 -114.5t88 -42.5t88 42.5t32 114.5t-32 114.5t-88 42.5zM222 -242q100 0 156.5 50.5t56.5 107.5q0 109 -116 109q-37 0 -84.5 -5t-71.5 -5q-19 0 -34 3q-79 -27 -79 -123q0 -53 43 -95t129 -42z" />
    <glyph glyph-name="Hbar" unicode="&#x126;" horiz-adv-x="800" 
d="M750 692h-40q-20 0 -25 -5t-5 -25v-146h70v-12h-70v-466q0 -20 5 -25t25 -5h40v-8h-190v8h40q20 0 25 5t5 25v320h-460v-320q0 -20 5 -25t25 -5h40v-8h-190v8h40q20 0 25 5t5 25v466h-70v12h70v146q0 20 -5 25t-25 5h-40v8h190v-8h-40q-20 0 -25 -5t-5 -25v-146h460v146
q0 20 -5 25t-25 5h-40v8h190v-8zM630 504h-460v-138h460v138z" />
    <glyph glyph-name="hbar" unicode="&#x127;" horiz-adv-x="590" 
d="M560 8v-8h-190v8h40q20 0 25 5t5 25v297q0 167 -125 167q-73 0 -119 -64.5t-46 -155.5v-244q0 -20 5 -25t25 -5h40v-8h-190v8h40q20 0 25 5t5 25v567h-70v12h70v75q0 20 -6.5 27t-23.5 3l-40 -10v8l120 30v-133h90v-12h-90v-255q16 77 62.5 118.5t102.5 41.5
q86 0 130.5 -47t44.5 -128v-297q0 -20 5 -25t25 -5h40z" />
    <glyph glyph-name="Imacron" unicode="&#x12a;" 
d="M270 800h-250v12h250v-12zM240 692h-40q-20 0 -25 -5t-5 -25v-624q0 -20 5 -25t25 -5h40v-8h-190v8h40q20 0 25 5t5 25v624q0 20 -5 25t-25 5h-40v8h190v-8z" />
    <glyph glyph-name="imacron" unicode="&#x12b;" horiz-adv-x="250" 
d="M250 600h-250v12h250v-12zM150 500v-462q0 -20 5 -25t25 -5h40v-8h-190v8h40q20 0 25 5t5 25v404q0 20 -6.5 27t-23.5 3l-40 -10v8z" />
    <glyph glyph-name="Iogonek" unicode="&#x12e;" 
d="M240 692h-40q-20 0 -25 -5t-5 -25v-624q0 -20 5 -25t25 -5h40v-8h-70q-31 -25 -54 -62.5t-23 -67.5q0 -25 14.5 -40.5t38.5 -15.5q33 0 61 21l1 -6q-27 -29 -73 -29q-30 0 -51 16t-21 49q0 63 99 135h-112v8h40q20 0 25 5t5 25v624q0 20 -5 25t-25 5h-40v8h190v-8z" />
    <glyph glyph-name="iogonek" unicode="&#x12f;" horiz-adv-x="250" 
d="M125 580q-14 0 -24.5 10.5t-10.5 24.5t10.5 24.5t24.5 10.5t24.5 -10.5t10.5 -24.5t-10.5 -24.5t-24.5 -10.5zM257 -165l1 -6q-27 -29 -73 -29q-30 0 -51 16t-21 49q0 63 99 135h-182v8h40q20 0 25 5t5 25v404q0 20 -6.5 27t-23.5 3l-40 -10v8l120 30v-462q0 -20 5 -25
t25 -5h40v-8q-31 -25 -54 -62.5t-23 -67.5q0 -25 14.5 -40.5t38.5 -15.5q33 0 61 21z" />
    <glyph glyph-name="Idotaccent" unicode="&#x130;" 
d="M145 850q14 0 24.5 -10.5t10.5 -24.5t-10.5 -24.5t-24.5 -10.5t-24.5 10.5t-10.5 24.5t10.5 24.5t24.5 10.5zM240 692h-40q-20 0 -25 -5t-5 -25v-624q0 -20 5 -25t25 -5h40v-8h-190v8h40q20 0 25 5t5 25v624q0 20 -5 25t-25 5h-40v8h190v-8z" />
    <glyph glyph-name="dotlessi" unicode="&#x131;" horiz-adv-x="250" 
d="M150 500v-462q0 -20 5 -25t25 -5h40v-8h-190v8h40q20 0 25 5t5 25v404q0 20 -6.5 27t-23.5 3l-40 -10v8z" />
    <glyph glyph-name="IJ" unicode="&#x132;" horiz-adv-x="639" 
d="M240 692h-40q-20 0 -25 -5t-5 -25v-624q0 -20 5 -25t25 -5h40v-8h-190v8h40q20 0 25 5t5 25v624q0 20 -5 25t-25 5h-40v8h190v-8zM594 692h-40q-20 0 -25 -5t-5 -25v-476q0 -103 -37 -149.5t-98 -46.5q-45 0 -70 23.5t-25 46.5q0 25 25 25t25 -25q0 -5 -2.5 -15t-2.5 -15
q0 -32 50 -32q45 0 65 38.5t20 127.5v498q0 20 -5 25t-25 5h-40v8h190v-8z" />
    <glyph glyph-name="ij" unicode="&#x133;" horiz-adv-x="474" 
d="M125 650q14 0 24.5 -10.5t10.5 -24.5t-10.5 -24.5t-24.5 -10.5t-24.5 10.5t-10.5 24.5t10.5 24.5t24.5 10.5zM369 650q14 0 24.5 -10.5t10.5 -24.5t-10.5 -24.5t-24.5 -10.5t-24.5 10.5t-10.5 24.5t10.5 24.5t24.5 10.5zM150 500v-462q0 -20 5 -25t25 -5h40v-8h-190v8h40
q20 0 25 5t5 25v404q0 20 -6.5 27t-23.5 3l-40 -10v8zM394 500v-604q0 -70 -31.5 -108t-85.5 -38q-37 0 -60 15.5t-23 34.5q0 25 25 25t25 -25q0 -5 -2.5 -13.5t-2.5 -12.5q0 -16 38 -16q39 0 53 29t14 87v568q0 20 -6.5 27t-23.5 3l-40 -10v8z" />
    <glyph glyph-name="Kcommaaccent" unicode="&#x136;" horiz-adv-x="655" 
d="M240 692h-40q-20 0 -25 -5t-5 -25v-624q0 -20 5 -25t25 -5h40v-8h-190v8h40q20 0 25 5t5 25v624q0 20 -5 25t-25 5h-40v8h190v-8zM600 692h-44q-31 0 -60 -30l-280 -291l339 -333q18 -18 28 -24t28 -6h39v-8h-235v8h55q18 0 23 8t-8 22l-310 303l309 321q11 13 5.5 21.5
t-20.5 8.5h-69v8h200v-8zM328 -60q30 0 30 -45q0 -44 -18 -64.5t-42 -20.5v8q21 0 34.5 15t13.5 31t-18 16q-30 0 -30 30q0 13 8 21.5t22 8.5z" />
    <glyph glyph-name="kcommaaccent" unicode="&#x137;" horiz-adv-x="570" 
d="M150 750v-712q0 -20 5 -25t25 -5h40v-8h-190v8h40q20 0 25 5t5 25v654q0 20 -6.5 27t-23.5 3l-40 -10v8zM540 492h-38q-26 0 -40.5 -6t-38.5 -24l-217 -171l249 -253q30 -30 66 -30h34v-8h-235v8h60q17 0 22 9t-7 21l-235 227l250 197q13 11 6.5 20.5t-21.5 9.5h-65v8
h210v-8zM275 -60q30 0 30 -45q0 -44 -18 -64.5t-42 -20.5v8q21 0 34.5 15t13.5 31t-18 16q-30 0 -30 30q0 13 8 21.5t22 8.5z" />
    <glyph glyph-name="Lacute" unicode="&#x139;" horiz-adv-x="580" 
d="M255 901q11 0 18.5 -7.5t7.5 -20.5t-10.5 -26.5t-35 -29l-38.5 -24t-48 -24.5t-37 -18l-3 6q41 21 62 42t36 56q20 46 48 46zM240 692h-40q-20 0 -25 -5t-5 -25v-624q0 -20 5 -25t25 -5h216q106 0 106 126v30h8v-164h-480v8h40q20 0 25 5t5 25v624q0 20 -5 25t-25 5h-40
v8h190v-8z" />
    <glyph glyph-name="lacute" unicode="&#x13a;" horiz-adv-x="250" 
d="M235 940q11 0 18.5 -7.5t7.5 -20.5t-10.5 -26.5t-35 -29l-38.5 -24t-48 -24.5t-37 -18l-3 6q41 21 62 42t36 56q20 46 48 46zM150 750v-712q0 -20 5 -25t25 -5h40v-8h-190v8h40q20 0 25 5t5 25v654q0 20 -6.5 27t-23.5 3l-40 -10v8z" />
    <glyph glyph-name="Lcommaaccent" unicode="&#x13b;" horiz-adv-x="580" 
d="M240 692h-40q-20 0 -25 -5t-5 -25v-624q0 -20 5 -25t25 -5h216q106 0 106 126v30h8v-164h-480v8h40q20 0 25 5t5 25v624q0 20 -5 25t-25 5h-40v8h190v-8zM290 -60q30 0 30 -45q0 -44 -18 -64.5t-42 -20.5v8q21 0 34.5 15t13.5 31t-18 16q-30 0 -30 30q0 13 8 21.5t22 8.5
z" />
    <glyph glyph-name="lcommaaccent" unicode="&#x13c;" horiz-adv-x="250" 
d="M150 750v-712q0 -20 5 -25t25 -5h40v-8h-190v8h40q20 0 25 5t5 25v654q0 20 -6.5 27t-23.5 3l-40 -10v8zM125 -60q30 0 30 -45q0 -44 -18 -64.5t-42 -20.5v8q21 0 34.5 15t13.5 31t-18 16q-30 0 -30 30q0 13 8 21.5t22 8.5z" />
    <glyph glyph-name="Lcaron" unicode="&#x13d;" horiz-adv-x="580" 
d="M340 710q30 0 30 -45q0 -81 -57 -125l-5 6q21 16 34.5 40.5t13.5 43.5q0 20 -18 20q-12 0 -20 8.5t-8 21.5t8 21.5t22 8.5zM240 692h-40q-20 0 -25 -5t-5 -25v-624q0 -20 5 -25t25 -5h216q106 0 106 126v30h8v-164h-480v8h40q20 0 25 5t5 25v624q0 20 -5 25t-25 5h-40v8
h190v-8z" />
    <glyph glyph-name="lcaron" unicode="&#x13e;" horiz-adv-x="280" 
d="M150 750v-712q0 -20 5 -25t25 -5h40v-8h-190v8h40q20 0 25 5t5 25v654q0 20 -6.5 27t-23.5 3l-40 -10v8zM230 750q30 0 30 -45q0 -81 -57 -125l-5 6q21 16 34.5 40.5t13.5 43.5q0 20 -18 20q-12 0 -20 8.5t-8 21.5t8 21.5t22 8.5z" />
    <glyph glyph-name="Ldot" unicode="&#x13f;" horiz-adv-x="580" 
d="M240 692h-40q-20 0 -25 -5t-5 -25v-624q0 -20 5 -25t25 -5h216q106 0 106 126v30h8v-164h-480v8h40q20 0 25 5t5 25v624q0 20 -5 25t-25 5h-40v8h190v-8zM340 369q13 0 21.5 -8.5t8.5 -21.5t-8 -21.5t-22 -8.5q-30 0 -30 30q0 13 8 21.5t22 8.5z" />
    <glyph glyph-name="ldot" unicode="&#x140;" horiz-adv-x="305" 
d="M150 750v-712q0 -20 5 -25t25 -5h40v-8h-190v8h40q20 0 25 5t5 25v654q0 20 -6.5 27t-23.5 3l-40 -10v8zM245 369q13 0 21.5 -8.5t8.5 -21.5t-8.5 -21.5t-21.5 -8.5q-30 0 -30 30q0 13 8 21.5t22 8.5z" />
    <glyph glyph-name="Lslash" unicode="&#x141;" horiz-adv-x="580" 
d="M530 164v-164h-480v8h40q20 0 25 5t5 25v280l-70 -24v12l70 24v332q0 20 -5 25t-25 5h-40v8h190v-8h-40q-20 0 -25 -5t-5 -25v-315l170 59v-12l-170 -59v-297q0 -20 5 -25t25 -5h216q106 0 106 126v30h8z" />
    <glyph glyph-name="lslash" unicode="&#x142;" horiz-adv-x="250" 
d="M150 357v-319q0 -20 5 -25t25 -5h40v-8h-190v8h40q20 0 25 5t5 25v293l-70 -37v12l70 37v349q0 20 -6.5 27t-23.5 3l-40 -10v8l120 30v-381l70 37v-12z" />
    <glyph glyph-name="Nacute" unicode="&#x143;" horiz-adv-x="730" 
d="M475 900q11 0 18.5 -7.5t7.5 -20.5t-10.5 -26.5t-35 -29l-38.5 -24t-48 -24.5t-37 -18l-3 6q41 21 62 42t36 56q20 46 48 46zM690 692h-38q-20 -1 -25 -6t-5 -24v-663l-8 1l-498 667v-629q0 -20 5 -25t25 -5h40v-8h-146v8h38q20 0 25 5t5 25v624q0 20 -5 25t-25 5h-38v8
h116l458 -620v582q0 20 -5 25t-25 5h-38v8h144v-8z" />
    <glyph glyph-name="nacute" unicode="&#x144;" horiz-adv-x="590" 
d="M415 700q11 0 18.5 -7.5t7.5 -20.5t-10.5 -26.5t-35 -29l-38.5 -24t-48 -24.5t-37 -18l-3 6q41 21 62 42t36 56q20 46 48 46zM315 510q86 0 130.5 -47t44.5 -128v-297q0 -20 5 -25t25 -5h40v-8h-190v8h40q20 0 25 5t5 25v297q0 167 -125 167q-73 0 -119 -64.5t-46 -155.5
v-244q0 -20 5 -25t25 -5h40v-8h-190v8h40q20 0 25 5t5 25v404q0 20 -6.5 27t-23.5 3l-40 -10v8l120 30v-150q16 77 62.5 118.5t102.5 41.5z" />
    <glyph glyph-name="Ncommaaccent" unicode="&#x145;" horiz-adv-x="730" 
d="M690 692h-38q-20 -1 -25 -6t-5 -24v-663l-8 1l-498 667v-629q0 -20 5 -25t25 -5h40v-8h-146v8h38q20 0 25 5t5 25v624q0 20 -5 25t-25 5h-38v8h116l458 -620v582q0 20 -5 25t-25 5h-38v8h144v-8zM365 -60q30 0 30 -45q0 -44 -18 -64.5t-42 -20.5v8q21 0 34.5 15t13.5 31
t-18 16q-30 0 -30 30q0 13 8 21.5t22 8.5z" />
    <glyph glyph-name="ncommaaccent" unicode="&#x146;" horiz-adv-x="590" 
d="M315 510q86 0 130.5 -47t44.5 -128v-297q0 -20 5 -25t25 -5h40v-8h-190v8h40q20 0 25 5t5 25v297q0 167 -125 167q-73 0 -119 -64.5t-46 -155.5v-244q0 -20 5 -25t25 -5h40v-8h-190v8h40q20 0 25 5t5 25v404q0 20 -6.5 27t-23.5 3l-40 -10v8l120 30v-150
q16 77 62.5 118.5t102.5 41.5zM295 -60q30 0 30 -45q0 -44 -18 -64.5t-42 -20.5v8q21 0 34.5 15t13.5 31t-18 16q-30 0 -30 30q0 13 8 21.5t22 8.5z" />
    <glyph glyph-name="Ncaron" unicode="&#x147;" horiz-adv-x="730" 
d="M513 900l4 -8q-37 -20 -81.5 -65.5t-65.5 -78.5h-9q-21 33 -66 78.5t-82 65.5l4 8q101 -44 148 -87q50 44 148 87zM690 692h-38q-20 -1 -25 -6t-5 -24v-663l-8 1l-498 667v-629q0 -20 5 -25t25 -5h40v-8h-146v8h38q20 0 25 5t5 25v624q0 20 -5 25t-25 5h-38v8h116
l458 -620v582q0 20 -5 25t-25 5h-38v8h144v-8z" />
    <glyph glyph-name="ncaron" unicode="&#x148;" horiz-adv-x="590" 
d="M453 700l4 -8q-37 -20 -81.5 -65.5t-65.5 -78.5h-9q-21 33 -66 78.5t-82 65.5l4 8q101 -44 148 -87q50 44 148 87zM315 510q86 0 130.5 -47t44.5 -128v-297q0 -20 5 -25t25 -5h40v-8h-190v8h40q20 0 25 5t5 25v297q0 167 -125 167q-73 0 -119 -64.5t-46 -155.5v-244
q0 -20 5 -25t25 -5h40v-8h-190v8h40q20 0 25 5t5 25v404q0 20 -6.5 27t-23.5 3l-40 -10v8l120 30v-150q16 77 62.5 118.5t102.5 41.5z" />
    <glyph glyph-name="Eng" unicode="&#x14a;" horiz-adv-x="730" 
d="M690 700v-8h-38q-20 -1 -25 -6t-5 -24v-746q0 -82 -40.5 -124t-98.5 -42q-37 0 -60 15.5t-23 34.5q0 25 25 25t25 -24q0 -5 -2.5 -13.5t-2.5 -13.5q0 -16 38 -16q55 0 93 40t38 118v84l-498 667v-629q0 -20 5 -25t25 -5h40v-8h-146v8h38q20 0 25 5t5 25v624q0 20 -5 25
t-25 5h-38v8h116l458 -620v582q0 20 -5 25t-25 5h-38v8h144z" />
    <glyph glyph-name="eng" unicode="&#x14b;" horiz-adv-x="560" 
d="M315 510q86 0 130.5 -47t44.5 -128v-439q0 -70 -31.5 -108t-85.5 -38q-37 0 -60 15.5t-23 34.5q0 25 25 25t25 -25q0 -5 -2.5 -13.5t-2.5 -12.5q0 -16 38 -16q39 0 53 29t14 87v461q0 167 -125 167q-73 0 -119 -64.5t-46 -155.5v-244q0 -20 5 -25t25 -5h40v-8h-190v8h40
q20 0 25 5t5 25v404q0 20 -6.5 27t-23.5 3l-40 -10v8l120 30v-150q16 77 62.5 118.5t102.5 41.5z" />
    <glyph glyph-name="Omacron" unicode="&#x14c;" horiz-adv-x="840" 
d="M545 800h-250v12h250v-12zM420 710q147 0 248.5 -102.5t101.5 -257.5t-101.5 -257.5t-248.5 -102.5t-248.5 102.5t-101.5 257.5t101.5 257.5t248.5 102.5zM420 702q-126 0 -213 -100.5t-87 -251.5t87 -251.5t213 -100.5t213 100.5t87 251.5t-87 251.5t-213 100.5z" />
    <glyph glyph-name="omacron" unicode="&#x14d;" horiz-adv-x="540" 
d="M395 600h-250v12h250v-12zM270 510q111 0 168 -74.5t57 -185.5t-57 -185.5t-168 -74.5t-168 74.5t-57 185.5t57 185.5t168 74.5zM270 502q-83 0 -129 -67.5t-46 -184.5t46 -184.5t129 -67.5q82 0 128.5 68t46.5 184t-46.5 184t-128.5 68z" />
    <glyph glyph-name="Ohungarumlaut" unicode="&#x150;" horiz-adv-x="840" 
d="M470 900q11 0 18.5 -7.5t7.5 -20.5t-10.5 -26.5t-35 -29l-38.5 -24t-48 -24.5t-37 -18l-3 6q41 21 62 42t36 56q20 46 48 46zM620 900q11 0 18.5 -7.5t7.5 -20.5t-10.5 -26.5t-35 -29l-38.5 -24t-48 -24.5t-37 -18l-3 6q41 21 62 42t36 56q20 46 48 46zM420 710
q147 0 248.5 -102.5t101.5 -257.5t-101.5 -257.5t-248.5 -102.5t-248.5 102.5t-101.5 257.5t101.5 257.5t248.5 102.5zM420 702q-126 0 -213 -100.5t-87 -251.5t87 -251.5t213 -100.5t213 100.5t87 251.5t-87 251.5t-213 100.5z" />
    <glyph glyph-name="ohungarumlaut" unicode="&#x151;" horiz-adv-x="540" 
d="M320 700q11 0 18.5 -7.5t7.5 -20.5t-10.5 -26.5t-35 -29l-38.5 -24t-48 -24.5t-37 -18l-3 6q41 21 62 42t36 56q20 46 48 46zM470 700q11 0 18.5 -7.5t7.5 -20.5t-10.5 -26.5t-35 -29l-38.5 -24t-48 -24.5t-37 -18l-3 6q41 21 62 42t36 56q20 46 48 46zM270 510
q111 0 168 -74.5t57 -185.5t-57 -185.5t-168 -74.5t-168 74.5t-57 185.5t57 185.5t168 74.5zM270 502q-83 0 -129 -67.5t-46 -184.5t46 -184.5t129 -67.5q82 0 128.5 68t46.5 184t-46.5 184t-128.5 68z" />
    <glyph glyph-name="OE" unicode="&#x152;" horiz-adv-x="1245" 
d="M1175 164v-164h-455v160q-46 -79 -126 -124.5t-174 -45.5q-147 0 -248.5 102.5t-101.5 257.5t101.5 257.5t248.5 102.5q94 0 174 -45.5t126 -124.5v160h430v-164h-8v30q0 126 -106 126h-236q-20 0 -25 -5t-5 -25v-300h166q106 0 106 88v30h8v-244h-8v30q0 88 -106 88
h-166v-316q0 -20 5 -25t25 -5h261q106 0 106 126v30h8zM420 -2q126 0 213 100.5t87 251.5t-87 251.5t-213 100.5t-213 -100.5t-87 -251.5t87 -251.5t213 -100.5z" />
    <glyph glyph-name="oe" unicode="&#x153;" horiz-adv-x="900" 
d="M670 -2q123 0 180 99l5 -7q-58 -100 -185 -100q-146 0 -200 129q-54 -129 -200 -129q-111 0 -168 74.5t-57 185.5t57 185.5t168 74.5q146 0 200 -129q54 129 200 129q185 0 185 -226h-359q-1 -11 -1 -34q0 -116 46.5 -184t128.5 -68zM270 -2q82 0 128.5 68t46.5 184
t-46.5 184t-128.5 68q-83 0 -129 -67.5t-46 -184.5t46 -184.5t129 -67.5zM670 502q-74 0 -119.5 -56t-53.5 -154h308q0 24 -1 40t-4 44.5t-12 47t-23 38.5t-38.5 30t-56.5 10z" />
    <glyph glyph-name="Racute" unicode="&#x154;" horiz-adv-x="680" 
d="M466 872q0 -13 -10.5 -26.5t-35 -29l-38.5 -24t-48 -24.5t-37 -18l-3 6q41 21 62 42t36 56q20 46 48 46q11 0 18.5 -7.5t7.5 -20.5zM631 1q18 0 44 7v-8q-42 -10 -64 -10q-59 0 -88 42t-54 139q-22 83 -55.5 115t-88.5 32h-155v-280q0 -20 5 -25t25 -5h40v-8h-190v8h40
q20 0 25 5t5 25v624q0 20 -5 25t-25 5h-40v8h275q113 0 169 -51.5t56 -138.5q0 -76 -43.5 -126.5t-130.5 -62.5q113 -23 143 -150q10 -40 15 -58.5t14.5 -45t19.5 -37.5t26 -20t37 -9zM170 326h155q88 1 131.5 44.5t43.5 139.5t-43.5 139t-131.5 43h-155v-366z" />
    <glyph glyph-name="racute" unicode="&#x155;" horiz-adv-x="370" 
d="M295 700q11 0 18.5 -7.5t7.5 -20.5t-10.5 -26.5t-35 -29l-38.5 -24t-48 -24.5t-37 -18l-3 6q41 21 62 42t36 56q20 46 48 46zM295 510q24 0 39.5 -12t15.5 -33q0 -11 -7 -18t-18 -7t-18 6.5t-7 16.5q0 5 2.5 13t2.5 12q0 14 -17 14q-51 0 -94.5 -70.5t-43.5 -156.5v-237
q0 -20 5 -25t25 -5h40v-8h-190v8h40q20 0 25 5t5 25v404q0 20 -6.5 27t-23.5 3l-40 -10v8l120 30v-160q20 82 59.5 126t85.5 44z" />
    <glyph glyph-name="Rcommaaccent" unicode="&#x156;" horiz-adv-x="680" 
d="M631 1q18 0 44 7v-8q-42 -10 -64 -10q-59 0 -88 42t-54 139q-22 83 -55.5 115t-88.5 32h-155v-280q0 -20 5 -25t25 -5h40v-8h-190v8h40q20 0 25 5t5 25v624q0 20 -5 25t-25 5h-40v8h275q113 0 169 -51.5t56 -138.5q0 -76 -43.5 -126.5t-130.5 -62.5q113 -23 143 -150
q10 -40 15 -58.5t14.5 -45t19.5 -37.5t26 -20t37 -9zM170 326h155q88 1 131.5 44.5t43.5 139.5t-43.5 139t-131.5 43h-155v-366zM340 -60q30 0 30 -45q0 -44 -18 -64.5t-42 -20.5v8q21 0 34.5 15t13.5 31t-18 16q-30 0 -30 30q0 13 8 21.5t22 8.5z" />
    <glyph glyph-name="rcommaaccent" unicode="&#x157;" horiz-adv-x="370" 
d="M295 510q24 0 39.5 -12t15.5 -33q0 -11 -7 -18t-18 -7t-18 6.5t-7 16.5q0 5 2.5 13t2.5 12q0 14 -17 14q-51 0 -94.5 -70.5t-43.5 -156.5v-237q0 -20 5 -25t25 -5h40v-8h-190v8h40q20 0 25 5t5 25v404q0 20 -6.5 27t-23.5 3l-40 -10v8l120 30v-160q20 82 59.5 126
t85.5 44zM125 -60q30 0 30 -45q0 -44 -18 -64.5t-42 -20.5v8q21 0 34.5 15t13.5 31t-18 16q-30 0 -30 30q0 13 8 21.5t22 8.5z" />
    <glyph glyph-name="Rcaron" unicode="&#x158;" horiz-adv-x="680" 
d="M335 748h-9q-21 33 -66 78.5t-82 65.5l4 8q101 -44 148 -87q50 44 148 87l4 -8q-37 -20 -81.5 -65.5t-65.5 -78.5zM631 1q18 0 44 7v-8q-42 -10 -64 -10q-59 0 -88 42t-54 139q-22 83 -55.5 115t-88.5 32h-155v-280q0 -20 5 -25t25 -5h40v-8h-190v8h40q20 0 25 5t5 25
v624q0 20 -5 25t-25 5h-40v8h275q113 0 169 -51.5t56 -138.5q0 -76 -43.5 -126.5t-130.5 -62.5q113 -23 143 -150q10 -40 15 -58.5t14.5 -45t19.5 -37.5t26 -20t37 -9zM170 326h155q88 1 131.5 44.5t43.5 139.5t-43.5 139t-131.5 43h-155v-366z" />
    <glyph glyph-name="rcaron" unicode="&#x159;" horiz-adv-x="370" 
d="M333 700l4 -8q-37 -20 -81.5 -65.5t-65.5 -78.5h-9q-21 33 -66 78.5t-82 65.5l4 8q101 -44 148 -87q50 44 148 87zM295 510q24 0 39.5 -12t15.5 -33q0 -11 -7 -18t-18 -7t-18 6.5t-7 16.5q0 5 2.5 13t2.5 12q0 14 -17 14q-51 0 -94.5 -70.5t-43.5 -156.5v-237
q0 -20 5 -25t25 -5h40v-8h-190v8h40q20 0 25 5t5 25v404q0 20 -6.5 27t-23.5 3l-40 -10v8l120 30v-160q20 82 59.5 126t85.5 44z" />
    <glyph glyph-name="Sacute" unicode="&#x15a;" horiz-adv-x="550" 
d="M389 900q11 0 18.5 -7.5t7.5 -20.5t-10.5 -26.5t-35 -29l-38.5 -24t-48 -24.5t-37 -18l-3 6q41 21 62 42t36 56q20 46 48 46zM279 710q40 0 75.5 -16t57.5 -32.5t30 -16.5q11 0 11 15v40h8v-175h-8l-2 10q-17 83 -62 125t-110 42q-75 0 -114.5 -34.5t-39.5 -93.5
q0 -48 27 -85.5t67.5 -59.5l88 -47l88 -48t67.5 -63t27 -91q0 -82 -60 -136t-160 -54q-42 0 -78 10t-55 22.5l-35 22.5t-23 10q-11 0 -11 -15v-40h-8v175h8l2 -10q17 -86 66 -126.5t134 -40.5q82 0 128.5 39.5t46.5 118.5q0 57 -37.5 99t-91.5 68.5l-107.5 53.5t-91 70.5
t-37.5 102.5q0 70 54.5 115t144.5 45z" />
    <glyph glyph-name="sacute" unicode="&#x15b;" horiz-adv-x="450" 
d="M335 700q11 0 18.5 -7.5t7.5 -20.5t-10.5 -26.5t-35 -29l-38.5 -24t-48 -24.5t-37 -18l-3 6q41 21 62 42t36 56q20 46 48 46zM385 360h-8l-2 10q-10 51 -40 82.5t-57.5 40.5t-53.5 9q-60 0 -89.5 -29.5t-29.5 -69.5q0 -41 31 -68.5t75 -43l88 -31.5t75 -47.5t31 -79.5
q0 -60 -47 -101.5t-133 -41.5q-45 0 -100.5 22.5t-60.5 22.5q-11 0 -11 -15v-30h-8v150h8l2 -10q15 -73 66 -102.5t104 -29.5q68 0 101.5 33t33.5 81q0 42 -31 70t-75 44l-88 33t-75 47.5t-31 75.5q0 58 42 93t122 35q42 0 91 -22.5t51 -22.5q11 0 11 15v30h8v-150z" />
    <glyph glyph-name="Scedilla" unicode="&#x15e;" horiz-adv-x="550" 
d="M490 180q0 -81 -58.5 -135t-157.5 -55v-54q43 -1 71.5 -19t28.5 -55q0 -35 -26 -56.5t-72 -21.5q-34 0 -62 12l2 8q26 -12 59 -12q38 0 53.5 22t15.5 48t-17.5 46.5t-60.5 19.5v62q-52 0 -93.5 16.5t-64 32.5t-29.5 16q-11 0 -11 -15v-40h-8v175h8l2 -10
q17 -86 66 -126.5t134 -40.5q82 0 128.5 39.5t46.5 118.5q0 57 -37.5 99t-91.5 68.5l-107.5 53.5t-91 70.5t-37.5 102.5q0 70 54.5 115t144.5 45q40 0 75.5 -16t57.5 -32.5t30 -16.5q11 0 11 15v40h8v-175h-8l-2 10q-17 83 -62 125t-110 42q-75 0 -114.5 -34.5t-39.5 -93.5
q0 -48 27 -85.5t67.5 -59.5l88 -47l88 -48t67.5 -63t27 -91z" />
    <glyph glyph-name="scedilla" unicode="&#x15f;" horiz-adv-x="450" 
d="M405 133q0 -59 -46 -100.5t-130 -42.5v-54q43 -1 71.5 -19t28.5 -55q0 -35 -26 -56.5t-72 -21.5q-33 0 -62 12l2 8q26 -12 59 -12q38 0 53.5 22t15.5 48t-17.5 46.5t-60.5 19.5v62q-43 1 -97 23t-60 22q-11 0 -11 -15v-30h-8v150h8l2 -10q15 -73 66 -102.5t104 -29.5
q68 0 101.5 33t33.5 81q0 42 -31 70t-75 44l-88 33t-75 47.5t-31 75.5q0 58 42 93t122 35q42 0 91 -22.5t51 -22.5q11 0 11 15v30h8v-150h-8l-2 10q-10 51 -40 82.5t-57.5 40.5t-53.5 9q-60 0 -89.5 -29.5t-29.5 -69.5q0 -41 31 -68.5t75 -43l88 -31.5t75 -47.5t31 -79.5z
" />
    <glyph glyph-name="Scaron" unicode="&#x160;" horiz-adv-x="550" 
d="M427 900l4 -8q-37 -20 -81.5 -65.5t-65.5 -78.5h-9q-21 33 -66 78.5t-82 65.5l4 8q101 -44 148 -87q50 44 148 87zM279 710q40 0 75.5 -16t57.5 -32.5t30 -16.5q11 0 11 15v40h8v-175h-8l-2 10q-17 83 -62 125t-110 42q-75 0 -114.5 -34.5t-39.5 -93.5q0 -48 27 -85.5
t67.5 -59.5l88 -47l88 -48t67.5 -63t27 -91q0 -82 -60 -136t-160 -54q-42 0 -78 10t-55 22.5l-35 22.5t-23 10q-11 0 -11 -15v-40h-8v175h8l2 -10q17 -86 66 -126.5t134 -40.5q82 0 128.5 39.5t46.5 118.5q0 57 -37.5 99t-91.5 68.5l-107.5 53.5t-91 70.5t-37.5 102.5
q0 70 54.5 115t144.5 45z" />
    <glyph glyph-name="scaron" unicode="&#x161;" horiz-adv-x="450" 
d="M373 700l4 -8q-37 -20 -81.5 -65.5t-65.5 -78.5h-9q-21 33 -66 78.5t-82 65.5l4 8q101 -44 148 -87q50 44 148 87zM385 360h-8l-2 10q-10 51 -40 82.5t-57.5 40.5t-53.5 9q-60 0 -89.5 -29.5t-29.5 -69.5q0 -41 31 -68.5t75 -43l88 -31.5t75 -47.5t31 -79.5
q0 -60 -47 -101.5t-133 -41.5q-45 0 -100.5 22.5t-60.5 22.5q-11 0 -11 -15v-30h-8v150h8l2 -10q15 -73 66 -102.5t104 -29.5q68 0 101.5 33t33.5 81q0 42 -31 70t-75 44l-88 33t-75 47.5t-31 75.5q0 58 42 93t122 35q42 0 91 -22.5t51 -22.5q11 0 11 15v30h8v-150z" />
    <glyph glyph-name="Tcedilla" unicode="&#x162;" horiz-adv-x="650" 
d="M600 700v-164h-8v30q0 126 -106 126h-106q-20 0 -25 -5t-5 -25v-624q0 -20 5 -25t25 -5h40v-8h-91v-58q43 -1 71.5 -19t28.5 -55q0 -35 -26 -56.5t-72 -21.5q-33 0 -62 12l2 8q26 -12 59 -12q38 0 53.5 22t15.5 48t-17.5 46.5t-60.5 19.5v66h-91v8h40q20 0 25 5t5 25v624
q0 20 -5 25t-25 5h-106q-106 0 -106 -126v-30h-8v164h550z" />
    <glyph glyph-name="tcedilla" unicode="&#x163;" horiz-adv-x="285" 
d="M185 -6v-48q43 -1 71.5 -19t28.5 -55q0 -35 -26 -56.5t-72 -21.5q-33 0 -62 12l2 8q26 -12 59 -12q38 0 53.5 22t15.5 48t-17.5 46.5t-60.5 19.5v56q-37 1 -62 22.5t-25 66.5v405h-70v12h70v100l46 30h4v-130h130v-12h-130v-407q0 -37 18.5 -54.5t39.5 -17.5
q22 0 40.5 11t24.5 26l7 -3q-5 -15 -29.5 -31.5t-55.5 -17.5z" />
    <glyph glyph-name="Tcaron" unicode="&#x164;" horiz-adv-x="650" 
d="M473 900l4 -8q-37 -20 -81.5 -65.5t-65.5 -78.5h-9q-21 33 -66 78.5t-82 65.5l4 8q101 -44 148 -87q50 44 148 87zM600 536h-8v30q0 126 -106 126h-106q-20 0 -25 -5t-5 -25v-624q0 -20 5 -25t25 -5h40v-8h-190v8h40q20 0 25 5t5 25v624q0 20 -5 25t-25 5h-106
q-106 0 -106 -126v-30h-8v164h550v-164z" />
    <glyph glyph-name="tcaron" unicode="&#x165;" horiz-adv-x="285" 
d="M220 710q30 0 30 -45q0 -81 -57 -125l-5 6q21 16 34.5 40.5t13.5 43.5q0 20 -18 20q-12 0 -20 8.5t-8 21.5t8 21.5t22 8.5zM140 500h130v-12h-130v-407q0 -37 18.5 -54.5t39.5 -17.5q22 0 40.5 11t24.5 26l7 -3q-5 -16 -30.5 -32.5t-58.5 -16.5q-38 0 -64.5 21.5
t-26.5 67.5v405h-70v12h70v100l46 30h4v-130z" />
    <glyph glyph-name="Tbar" unicode="&#x166;" horiz-adv-x="650" 
d="M600 700v-164h-8v30q0 126 -106 126h-106q-20 0 -25 -5t-5 -25v-306h100v-12h-100v-306q0 -20 5 -25t25 -5h40v-8h-190v8h40q20 0 25 5t5 25v306h-100v12h100v306q0 20 -5 25t-25 5h-106q-106 0 -106 -126v-30h-8v164h550z" />
    <glyph glyph-name="tbar" unicode="&#x167;" horiz-adv-x="285" 
d="M140 488v-181h130v-12h-130v-214q0 -37 18.5 -54.5t39.5 -17.5q22 0 40.5 11t24.5 26l7 -3q-5 -16 -30.5 -32.5t-58.5 -16.5q-38 0 -64.5 21.5t-26.5 67.5v212h-70v12h70v181h-70v12h70v100l46 30h4v-130h130v-12h-130z" />
    <glyph glyph-name="Umacron" unicode="&#x16a;" horiz-adv-x="715" 
d="M490 800h-250v12h250v-12zM680 692h-38q-20 0 -25 -5t-5 -25v-437q0 -122 -70.5 -178.5t-176.5 -56.5q-265 0 -265 250v422q0 20 -5 25t-25 5h-40v8h190v-8h-40q-20 0 -25 -5t-5 -25v-437q0 -227 215 -227q103 0 171 54.5t68 172.5v437q0 20 -5 25t-25 5h-38v8h144v-8z
" />
    <glyph glyph-name="umacron" unicode="&#x16b;" horiz-adv-x="590" 
d="M415 600h-250v12h250v-12zM490 500v-462q0 -20 5 -25t25 -5h40v-8h-120v151q-15 -77 -62 -119t-103 -42q-86 0 -130.5 47t-44.5 128v277q0 20 -6.5 27t-23.5 3l-40 -10v8l120 30v-335q0 -167 125 -167q73 0 119 65t46 156v223q0 20 -6.5 27t-23.5 3l-40 -10v8z" />
    <glyph glyph-name="Uring" unicode="&#x16e;" horiz-adv-x="715" 
d="M365 980q45 0 75 -30t30 -75t-30 -75t-75 -30t-75 30t-30 75t30 75t75 30zM365 968q-41 0 -67 -26t-26 -67t26 -67t67 -26t67 26t26 67t-26 67t-67 26zM680 692h-38q-20 0 -25 -5t-5 -25v-437q0 -122 -70.5 -178.5t-176.5 -56.5q-265 0 -265 250v422q0 20 -5 25t-25 5
h-40v8h190v-8h-40q-20 0 -25 -5t-5 -25v-437q0 -227 215 -227q103 0 171 54.5t68 172.5v437q0 20 -5 25t-25 5h-38v8h144v-8z" />
    <glyph glyph-name="uring" unicode="&#x16f;" horiz-adv-x="590" 
d="M290 780q45 0 75 -30t30 -75t-30 -75t-75 -30t-75 30t-30 75t30 75t75 30zM290 768q-41 0 -67 -26t-26 -67t26 -67t67 -26t67 26t26 67t-26 67t-67 26zM490 500v-462q0 -20 5 -25t25 -5h40v-8h-120v151q-15 -77 -62 -119t-103 -42q-86 0 -130.5 47t-44.5 128v277
q0 20 -6.5 27t-23.5 3l-40 -10v8l120 30v-335q0 -167 125 -167q73 0 119 65t46 156v223q0 20 -6.5 27t-23.5 3l-40 -10v8z" />
    <glyph glyph-name="Uhungarumlaut" unicode="&#x170;" horiz-adv-x="715" 
d="M415 900q11 0 18.5 -7.5t7.5 -20.5t-10.5 -26.5t-35 -29l-38.5 -24t-48 -24.5t-37 -18l-3 6q41 21 62 42t36 56q20 46 48 46zM565 900q11 0 18.5 -7.5t7.5 -20.5t-10.5 -26.5t-35 -29l-38.5 -24t-48 -24.5t-37 -18l-3 6q41 21 62 42t36 56q20 46 48 46zM680 692h-38
q-20 0 -25 -5t-5 -25v-437q0 -122 -70.5 -178.5t-176.5 -56.5q-265 0 -265 250v422q0 20 -5 25t-25 5h-40v8h190v-8h-40q-20 0 -25 -5t-5 -25v-437q0 -227 215 -227q103 0 171 54.5t68 172.5v437q0 20 -5 25t-25 5h-38v8h144v-8z" />
    <glyph glyph-name="uhungarumlaut" unicode="&#x171;" horiz-adv-x="590" 
d="M340 700q11 0 18.5 -7.5t7.5 -20.5t-10.5 -26.5t-35 -29l-38.5 -24t-48 -24.5t-37 -18l-3 6q41 21 62 42t36 56q20 46 48 46zM490 700q11 0 18.5 -7.5t7.5 -20.5t-10.5 -26.5t-35 -29l-38.5 -24t-48 -24.5t-37 -18l-3 6q41 21 62 42t36 56q20 46 48 46zM490 500v-462
q0 -20 5 -25t25 -5h40v-8h-120v151q-15 -77 -62 -119t-103 -42q-86 0 -130.5 47t-44.5 128v277q0 20 -6.5 27t-23.5 3l-40 -10v8l120 30v-335q0 -167 125 -167q73 0 119 65t46 156v223q0 20 -6.5 27t-23.5 3l-40 -10v8z" />
    <glyph glyph-name="Uogonek" unicode="&#x172;" horiz-adv-x="715" 
d="M680 700v-8h-38q-20 0 -25 -5t-5 -25v-437q0 -121 -70 -178t-175 -57q-31 -25 -53 -61.5t-22 -66.5q0 -25 14.5 -40.5t38.5 -15.5q33 0 61 21l1 -6q-27 -29 -73 -29q-30 0 -51 16t-21 49q0 62 96 133q-258 3 -258 250v422q0 20 -5 25t-25 5h-40v8h190v-8h-40
q-20 0 -25 -5t-5 -25v-437q0 -227 215 -227q103 0 171 54.5t68 172.5v437q0 20 -5 25t-25 5h-38v8h144z" />
    <glyph glyph-name="uogonek" unicode="&#x173;" horiz-adv-x="590" 
d="M597 -165l1 -6q-27 -29 -73 -29q-30 0 -51 16t-21 49q0 63 99 135h-112v151q-15 -77 -62 -119t-103 -42q-86 0 -130.5 47t-44.5 128v277q0 20 -6.5 27t-23.5 3l-40 -10v8l120 30v-335q0 -167 125 -167q73 0 119 65t46 156v223q0 20 -6.5 27t-23.5 3l-40 -10v8l120 30
v-462q0 -20 5 -25t25 -5h40v-8q-31 -25 -54 -62.5t-23 -67.5q0 -25 14.5 -40.5t38.5 -15.5q33 0 61 21z" />
    <glyph glyph-name="Wcircumflex" unicode="&#x174;" horiz-adv-x="1020" 
d="M470 835q-47 -43 -148 -87l-4 8q37 20 82 65.5t66 78.5h9q21 -33 65.5 -78.5t81.5 -65.5l-4 -8q-98 43 -148 87zM1015 700v-8h-44q-20 0 -26.5 -5t-14.5 -25l-242 -667h-8l-169 477l-173 -477h-8l-237 667q-7 20 -15.5 25t-28.5 5h-34v8h214v-8h-67q-16 0 -19 -7t4 -23
l210 -594l149 416l-63 178q-7 20 -15.5 25t-28.5 5h-34v8h214v-8h-67q-16 0 -19 -7t4 -23l210 -594l213 592q12 32 -15 32h-65v8h175z" />
    <glyph glyph-name="wcircumflex" unicode="&#x175;" horiz-adv-x="885" 
d="M440 635q-47 -43 -148 -87l-4 8q37 20 82 65.5t66 78.5h9q21 -33 65.5 -78.5t81.5 -65.5l-4 -8q-98 43 -148 87zM875 500v-8h-48q-20 0 -26.5 -5t-14.5 -25l-174 -472h-9l-160 409l-151 -409h-9l-185 472q-8 20 -15 25t-26 5h-47v8h234v-8h-76q-16 0 -19 -7t4 -23
l156 -404l129 353l-20 51q-8 20 -15 25t-26 5h-47v8h234v-8h-76q-16 0 -19 -7t4 -23l156 -404l148 404q6 16 2.5 23t-17.5 7h-82v8h195z" />
    <glyph glyph-name="Ycircumflex" unicode="&#x176;" horiz-adv-x="670" 
d="M356 900h9q21 -33 65.5 -78.5t81.5 -65.5l-4 -8q-98 43 -148 87q-47 -43 -148 -87l-4 8q37 20 82 65.5t66 78.5zM660 692h-25q-43 0 -61 -30l-214 -371v-253q0 -20 5 -25t25 -5h40v-8h-190v8h40q20 0 25 5t5 25v241l-211 383q-10 18 -20.5 24t-30.5 6h-38v8h234v-8h-70
q-15 0 -20 -4t-3.5 -9.5t8.5 -16.5l197 -362l207 359q10 19 6.5 26t-21.5 7h-73v8h185v-8z" />
    <glyph glyph-name="ycircumflex" unicode="&#x177;" horiz-adv-x="565" 
d="M296 700h9q21 -33 65.5 -78.5t81.5 -65.5l-4 -8q-98 43 -148 87q-47 -43 -148 -87l-4 8q37 20 82 65.5t66 78.5zM555 492h-48q-20 0 -26.5 -5t-14.5 -25l-174 -472q-41 -112 -94.5 -176t-109.5 -64q-31 0 -48 15.5t-17 34.5q0 25 25 25t25 -25q0 -5 -2.5 -13.5
t-2.5 -12.5q0 -16 20 -16q52 0 104 61.5t92 170.5l-186 472q-8 20 -15 25t-28 5h-45v8h234v-8h-76q-16 0 -19 -7t4 -23l156 -404l148 404q6 16 2.5 23t-17.5 7h-82v8h195v-8z" />
    <glyph glyph-name="Ydieresis" unicode="&#x178;" horiz-adv-x="670" 
d="M280 850q14 0 24.5 -10.5t10.5 -24.5t-10.5 -24.5t-24.5 -10.5t-24.5 10.5t-10.5 24.5t10.5 24.5t24.5 10.5zM440 850q14 0 24.5 -10.5t10.5 -24.5t-10.5 -24.5t-24.5 -10.5t-24.5 10.5t-10.5 24.5t10.5 24.5t24.5 10.5zM660 692h-25q-43 0 -61 -30l-214 -371v-253
q0 -20 5 -25t25 -5h40v-8h-190v8h40q20 0 25 5t5 25v241l-211 383q-10 18 -20.5 24t-30.5 6h-38v8h234v-8h-70q-15 0 -20 -4t-3.5 -9.5t8.5 -16.5l197 -362l207 359q10 19 6.5 26t-21.5 7h-73v8h185v-8z" />
    <glyph glyph-name="Zacute" unicode="&#x179;" horiz-adv-x="640" 
d="M430 900q11 0 18.5 -7.5t7.5 -20.5t-10.5 -26.5t-35 -29l-38.5 -24t-48 -24.5t-37 -18l-3 6q41 21 62 42t36 56q20 46 48 46zM560 692l-440 -684h346q106 0 106 126v30h8v-164h-520v8l440 684h-306q-106 0 -106 -126v-30h-8v164h480v-8z" />
    <glyph glyph-name="zacute" unicode="&#x17a;" horiz-adv-x="460" 
d="M340 700q11 0 18.5 -7.5t7.5 -20.5t-10.5 -26.5t-35 -29l-38.5 -24t-48 -24.5t-37 -18l-3 6q41 21 62 42t36 56q20 46 48 46zM426 492l-336 -484h222q55 0 82.5 34.5t27.5 91.5v30h8v-164h-400v8l336 484h-203q-52 0 -81 -35t-29 -91v-30h-8v164h381v-8z" />
    <glyph glyph-name="Zdotaccent" unicode="&#x17b;" horiz-adv-x="640" 
d="M320 850q14 0 24.5 -10.5t10.5 -24.5t-10.5 -24.5t-24.5 -10.5t-24.5 10.5t-10.5 24.5t10.5 24.5t24.5 10.5zM560 692l-440 -684h346q106 0 106 126v30h8v-164h-520v8l440 684h-306q-106 0 -106 -126v-30h-8v164h480v-8z" />
    <glyph glyph-name="zdotaccent" unicode="&#x17c;" horiz-adv-x="460" 
d="M230 650q14 0 24.5 -10.5t10.5 -24.5t-10.5 -24.5t-24.5 -10.5t-24.5 10.5t-10.5 24.5t10.5 24.5t24.5 10.5zM426 492l-336 -484h222q55 0 82.5 34.5t27.5 91.5v30h8v-164h-400v8l336 484h-203q-52 0 -81 -35t-29 -91v-30h-8v164h381v-8z" />
    <glyph glyph-name="Zcaron" unicode="&#x17d;" horiz-adv-x="640" 
d="M468 900l4 -8q-37 -20 -81.5 -65.5t-65.5 -78.5h-9q-21 33 -66 78.5t-82 65.5l4 8q101 -44 148 -87q50 44 148 87zM560 692l-440 -684h346q106 0 106 126v30h8v-164h-520v8l440 684h-306q-106 0 -106 -126v-30h-8v164h480v-8z" />
    <glyph glyph-name="zcaron" unicode="&#x17e;" horiz-adv-x="460" 
d="M378 700l4 -8q-37 -20 -81.5 -65.5t-65.5 -78.5h-9q-21 33 -66 78.5t-82 65.5l4 8q101 -44 148 -87q50 44 148 87zM426 492l-336 -484h222q55 0 82.5 34.5t27.5 91.5v30h8v-164h-400v8l336 484h-203q-52 0 -81 -35t-29 -91v-30h-8v164h381v-8z" />
    <glyph glyph-name="florin" unicode="&#x192;" horiz-adv-x="364" 
d="M315 750q32 0 51.5 -16t17.5 -34q-2 -25 -27 -25t-23 25q1 5 4.5 13.5t3.5 12.5q2 16 -28 16q-39 0 -55 -27.5t-22 -88.5l-14 -126h105l-1 -10h-105l-62 -594q-7 -70 -42.5 -108t-89.5 -38q-38 0 -59.5 15.5t-19.5 34.5q3 25 28 25t22 -25q-1 -5 -4 -13.5t-3 -12.5
q-3 -16 37 -16q39 0 55.5 28t22.5 88l65 616h-70l1 10h70l11 104q7 71 42 108.5t89 37.5z" />
    <glyph glyph-name="Scommaaccent" unicode="&#x218;" horiz-adv-x="550" 
d="M279 710q40 0 75.5 -16t57.5 -32.5t30 -16.5q11 0 11 15v40h8v-175h-8l-2 10q-17 83 -62 125t-110 42q-75 0 -114.5 -34.5t-39.5 -93.5q0 -48 27 -85.5t67.5 -59.5l88 -47l88 -48t67.5 -63t27 -91q0 -82 -60 -136t-160 -54q-42 0 -78 10t-55 22.5l-35 22.5t-23 10
q-11 0 -11 -15v-40h-8v175h8l2 -10q17 -86 66 -126.5t134 -40.5q82 0 128.5 39.5t46.5 118.5q0 57 -37.5 99t-91.5 68.5l-107.5 53.5t-91 70.5t-37.5 102.5q0 70 54.5 115t144.5 45zM270 -66q30 0 30 -45q0 -44 -18 -64.5t-42 -20.5v8q21 0 34.5 15t13.5 31t-18 16
q-30 0 -30 30q0 13 8 21.5t22 8.5z" />
    <glyph glyph-name="scommaaccent" unicode="&#x219;" horiz-adv-x="450" 
d="M385 360h-8l-2 10q-10 51 -40 82.5t-57.5 40.5t-53.5 9q-60 0 -89.5 -29.5t-29.5 -69.5q0 -41 31 -68.5t75 -43l88 -31.5t75 -47.5t31 -79.5q0 -60 -47 -101.5t-133 -41.5q-45 0 -100.5 22.5t-60.5 22.5q-11 0 -11 -15v-30h-8v150h8l2 -10q15 -73 66 -102.5t104 -29.5
q68 0 101.5 33t33.5 81q0 42 -31 70t-75 44l-88 33t-75 47.5t-31 75.5q0 58 42 93t122 35q42 0 91 -22.5t51 -22.5q11 0 11 15v30h8v-150zM225 -66q30 0 30 -45q0 -44 -18 -64.5t-42 -20.5v8q21 0 34.5 15t13.5 31t-18 16q-30 0 -30 30q0 13 8 21.5t22 8.5z" />
    <glyph glyph-name="Tcommaaccent" unicode="&#x21a;" horiz-adv-x="650" 
d="M600 536h-8v30q0 126 -106 126h-106q-20 0 -25 -5t-5 -25v-624q0 -20 5 -25t25 -5h40v-8h-190v8h40q20 0 25 5t5 25v624q0 20 -5 25t-25 5h-106q-106 0 -106 -126v-30h-8v164h550v-164zM325 -60q30 0 30 -45q0 -44 -18 -64.5t-42 -20.5v8q21 0 34.5 15t13.5 31t-18 16
q-30 0 -30 30q0 13 8 21.5t22 8.5z" />
    <glyph glyph-name="tcommaaccent" unicode="&#x21b;" horiz-adv-x="285" 
d="M140 500h130v-12h-130v-407q0 -37 18.5 -54.5t39.5 -17.5q22 0 40.5 11t24.5 26l7 -3q-5 -16 -30.5 -32.5t-58.5 -16.5q-38 0 -64.5 21.5t-26.5 67.5v405h-70v12h70v100l46 30h4v-130zM181 -56q30 0 30 -45q0 -44 -18 -64.5t-42 -20.5v8q21 0 34.5 15t13.5 31t-18 16
q-30 0 -30 30q0 13 8 21.5t22 8.5z" />
    <glyph glyph-name="dotlessj" unicode="&#x237;" horiz-adv-x="230" 
d="M150 500v-604q0 -70 -31.5 -108t-85.5 -38q-37 0 -60 15.5t-23 34.5q0 25 25 25t25 -25q0 -5 -2.5 -13.5t-2.5 -12.5q0 -16 38 -16q39 0 53 29t14 87v568q0 20 -6.5 27t-23.5 3l-40 -10v8z" />
    <glyph glyph-name="circumflex" unicode="&#x2c6;" horiz-adv-x="420" 
d="M206 700h9q21 -33 65.5 -78.5t81.5 -65.5l-4 -8q-98 43 -148 87q-47 -43 -148 -87l-4 8q37 20 82 65.5t66 78.5z" />
    <glyph glyph-name="caron" unicode="&#x2c7;" horiz-adv-x="420" 
d="M358 700l4 -8q-37 -20 -81.5 -65.5t-65.5 -78.5h-9q-21 33 -66 78.5t-82 65.5l4 8q101 -44 148 -87q50 44 148 87z" />
    <glyph glyph-name="breve" unicode="&#x2d8;" horiz-adv-x="375" 
d="M307 683h8q-11 -67 -46 -100t-84 -33q-48 0 -81 33t-44 100h8q7 -38 33.5 -65.5t83.5 -27.5q58 0 86.5 27.5t35.5 65.5z" />
    <glyph glyph-name="dotaccent" unicode="&#x2d9;" horiz-adv-x="190" 
d="M95 650q14 0 24.5 -10.5t10.5 -24.5t-10.5 -24.5t-24.5 -10.5t-24.5 10.5t-10.5 24.5t10.5 24.5t24.5 10.5z" />
    <glyph glyph-name="ring" unicode="&#x2da;" 
d="M145 780q45 0 75 -30t30 -75t-30 -75t-75 -30t-75 30t-30 75t30 75t75 30zM145 768q-41 0 -67 -26t-26 -67t26 -67t67 -26t67 26t26 67t-26 67t-67 26z" />
    <glyph glyph-name="ogonek" unicode="&#x2db;" horiz-adv-x="245" 
d="M149 0h8q-31 -25 -54 -62.5t-23 -67.5q0 -25 14.5 -40.5t38.5 -15.5q33 0 61 21l1 -6q-27 -29 -73 -29q-30 0 -51 16t-21 49q0 63 99 135z" />
    <glyph glyph-name="tilde" unicode="&#x2dc;" horiz-adv-x="400" 
d="M332 661h8q0 -38 -18.5 -59.5t-49.5 -21.5q-25 0 -76.5 23t-74.5 23q-26 0 -39.5 -13t-13.5 -33h-8q0 38 19.5 59.5t52.5 21.5q26 0 74.5 -23t72.5 -23q26 0 39.5 13t13.5 33z" />
    <glyph glyph-name="hungarumlaut" unicode="&#x2dd;" horiz-adv-x="440" 
d="M204 700q11 0 18.5 -7.5t7.5 -20.5t-10.5 -26.5t-35 -29l-38.5 -24t-48 -24.5t-37 -18l-3 6q41 21 62 42t36 56q20 46 48 46zM354 700q11 0 18.5 -7.5t7.5 -20.5t-10.5 -26.5t-35 -29l-38.5 -24t-48 -24.5t-37 -18l-3 6q41 21 62 42t36 56q20 46 48 46z" />
    <glyph glyph-name="commaaccent" unicode="&#x326;" horiz-adv-x="0" 
d="M90 -60q30 0 30 -45q0 -44 -18 -64.5t-42 -20.5v8q21 0 34.5 15t13.5 31t-18 16q-30 0 -30 30q0 13 8 21.5t22 8.5z" />
    <glyph glyph-name="Delta" unicode="&#x394;" horiz-adv-x="680" 
d="M630 0h-580l277 705h8zM571 8l-264 624l-245 -624h509z" />
    <glyph glyph-name="Omega" unicode="&#x3a9;" horiz-adv-x="840" 
d="M737 164h8v-164h-265v90q120 29 180 108t60 188q0 134 -87.5 225t-212.5 91t-212.5 -91t-87.5 -225q0 -109 60 -188t180 -108v-90h-265v164h8v-30q0 -57 27.5 -91.5t82.5 -34.5h139v76q-138 30 -210 110t-72 192q0 139 101.5 231.5t248.5 92.5t248.5 -92.5t101.5 -231.5
q0 -112 -72 -192t-210 -110v-76h139q55 0 82.5 34.5t27.5 91.5v30z" />
    <glyph glyph-name="mu" unicode="&#x3bc;" horiz-adv-x="600" 
d="M560 8v-8h-120v151q-15 -77 -62 -119t-103 -42q-80 0 -125 42v-136q0 -70 -31.5 -108t-85.5 -38q-37 0 -60 15.5t-23 34.5q0 25 25 25t25 -25q0 -5 -2.5 -13.5t-2.5 -12.5q0 -16 38 -16q39 0 53 29t14 87v568q0 20 -6.5 27t-23.5 3l-40 -10v8l120 30v-335
q0 -167 125 -167q73 0 119 65t46 156v223q0 20 -6.5 27t-23.5 3l-40 -10v8l120 30v-462q0 -20 5 -25t25 -5h40z" />
    <glyph glyph-name="pi" unicode="&#x3c0;" horiz-adv-x="590" 
d="M560 492h-40q-20 0 -25 -5t-5 -25v-424q0 -20 5 -25t25 -5h40v-8h-190v8h40q20 0 25 5t5 25v454h-290v-454q0 -20 5 -25t25 -5h40v-8h-190v8h40q20 0 25 5t5 25v424q0 20 -5 25t-25 5h-40v8h530v-8z" />
    <glyph glyph-name="Wgrave" unicode="&#x1e80;" horiz-adv-x="1020" 
d="M526 756l-3 -6q-3 2 -37 18t-48 24.5l-38.5 24t-35 29t-10.5 26.5t7.5 20.5t18.5 7.5q28 0 48 -46q15 -35 36 -56t62 -42zM1015 700v-8h-44q-20 0 -26.5 -5t-14.5 -25l-242 -667h-8l-169 477l-173 -477h-8l-237 667q-7 20 -15.5 25t-28.5 5h-34v8h214v-8h-67
q-16 0 -19 -7t4 -23l210 -594l149 416l-63 178q-7 20 -15.5 25t-28.5 5h-34v8h214v-8h-67q-16 0 -19 -7t4 -23l210 -594l213 592q12 32 -15 32h-65v8h175z" />
    <glyph glyph-name="wgrave" unicode="&#x1e81;" horiz-adv-x="885" 
d="M496 556l-3 -6q-3 2 -37 18t-48 24.5l-38.5 24t-35 29t-10.5 26.5t7.5 20.5t18.5 7.5q28 0 48 -46q15 -35 36 -56t62 -42zM875 500v-8h-48q-20 0 -26.5 -5t-14.5 -25l-174 -472h-9l-160 409l-151 -409h-9l-185 472q-8 20 -15 25t-26 5h-47v8h234v-8h-76q-16 0 -19 -7
t4 -23l156 -404l129 353l-20 51q-8 20 -15 25t-26 5h-47v8h234v-8h-76q-16 0 -19 -7t4 -23l156 -404l148 404q6 16 2.5 23t-17.5 7h-82v8h195z" />
    <glyph glyph-name="Wacute" unicode="&#x1e82;" horiz-adv-x="1020" 
d="M606 872q0 -13 -10.5 -26.5t-35 -29l-38.5 -24t-48 -24.5t-37 -18l-3 6q41 21 62 42t36 56q20 46 48 46q11 0 18.5 -7.5t7.5 -20.5zM1015 700v-8h-44q-20 0 -26.5 -5t-14.5 -25l-242 -667h-8l-169 477l-173 -477h-8l-237 667q-7 20 -15.5 25t-28.5 5h-34v8h214v-8h-67
q-16 0 -19 -7t4 -23l210 -594l149 416l-63 178q-7 20 -15.5 25t-28.5 5h-34v8h214v-8h-67q-16 0 -19 -7t4 -23l210 -594l213 592q12 32 -15 32h-65v8h175z" />
    <glyph glyph-name="wacute" unicode="&#x1e83;" horiz-adv-x="885" 
d="M576 672q0 -13 -10.5 -26.5t-35 -29l-38.5 -24t-48 -24.5t-37 -18l-3 6q41 21 62 42t36 56q20 46 48 46q11 0 18.5 -7.5t7.5 -20.5zM875 500v-8h-48q-20 0 -26.5 -5t-14.5 -25l-174 -472h-9l-160 409l-151 -409h-9l-185 472q-8 20 -15 25t-26 5h-47v8h234v-8h-76
q-16 0 -19 -7t4 -23l156 -404l129 353l-20 51q-8 20 -15 25t-26 5h-47v8h234v-8h-76q-16 0 -19 -7t4 -23l156 -404l148 404q6 16 2.5 23t-17.5 7h-82v8h195z" />
    <glyph glyph-name="Wdieresis" unicode="&#x1e84;" horiz-adv-x="1020" 
d="M390 780q-14 0 -24.5 10.5t-10.5 24.5t10.5 24.5t24.5 10.5t24.5 -10.5t10.5 -24.5t-10.5 -24.5t-24.5 -10.5zM550 780q-14 0 -24.5 10.5t-10.5 24.5t10.5 24.5t24.5 10.5t24.5 -10.5t10.5 -24.5t-10.5 -24.5t-24.5 -10.5zM1015 700v-8h-44q-20 0 -26.5 -5t-14.5 -25
l-242 -667h-8l-169 477l-173 -477h-8l-237 667q-7 20 -15.5 25t-28.5 5h-34v8h214v-8h-67q-16 0 -19 -7t4 -23l210 -594l149 416l-63 178q-7 20 -15.5 25t-28.5 5h-34v8h214v-8h-67q-16 0 -19 -7t4 -23l210 -594l213 592q12 32 -15 32h-65v8h175z" />
    <glyph glyph-name="wdieresis" unicode="&#x1e85;" horiz-adv-x="885" 
d="M360 580q-14 0 -24.5 10.5t-10.5 24.5t10.5 24.5t24.5 10.5t24.5 -10.5t10.5 -24.5t-10.5 -24.5t-24.5 -10.5zM520 580q-14 0 -24.5 10.5t-10.5 24.5t10.5 24.5t24.5 10.5t24.5 -10.5t10.5 -24.5t-10.5 -24.5t-24.5 -10.5zM875 500v-8h-48q-20 0 -26.5 -5t-14.5 -25
l-174 -472h-9l-160 409l-151 -409h-9l-185 472q-8 20 -15 25t-26 5h-47v8h234v-8h-76q-16 0 -19 -7t4 -23l156 -404l129 353l-20 51q-8 20 -15 25t-26 5h-47v8h234v-8h-76q-16 0 -19 -7t4 -23l156 -404l148 404q6 16 2.5 23t-17.5 7h-82v8h195z" />
    <glyph glyph-name="Ygrave" unicode="&#x1ef2;" horiz-adv-x="670" 
d="M270 900q28 0 48 -46q15 -35 36 -56t62 -42l-3 -6q-3 2 -37 18t-48 24.5l-38.5 24t-35 29t-10.5 26.5t7.5 20.5t18.5 7.5zM660 692h-25q-43 0 -61 -30l-214 -371v-253q0 -20 5 -25t25 -5h40v-8h-190v8h40q20 0 25 5t5 25v241l-211 383q-10 18 -20.5 24t-30.5 6h-38v8h234
v-8h-70q-15 0 -20 -4t-3.5 -9.5t8.5 -16.5l197 -362l207 359q10 19 6.5 26t-21.5 7h-73v8h185v-8z" />
    <glyph glyph-name="ygrave" unicode="&#x1ef3;" horiz-adv-x="565" 
d="M210 700q28 0 48 -46q15 -35 36 -56t62 -42l-3 -6q-3 2 -37 18t-48 24.5l-38.5 24t-35 29t-10.5 26.5t7.5 20.5t18.5 7.5zM555 492h-48q-20 0 -26.5 -5t-14.5 -25l-174 -472q-41 -112 -94.5 -176t-109.5 -64q-31 0 -48 15.5t-17 34.5q0 25 25 25t25 -25q0 -5 -2.5 -13.5
t-2.5 -12.5q0 -16 20 -16q52 0 104 61.5t92 170.5l-186 472q-8 20 -15 25t-28 5h-45v8h234v-8h-76q-16 0 -19 -7t4 -23l156 -404l148 404q6 16 2.5 23t-17.5 7h-82v8h195v-8z" />
    <glyph glyph-name="endash" unicode="&#x2013;" horiz-adv-x="490" 
d="M440 243h-390v12h390v-12z" />
    <glyph glyph-name="emdash" unicode="&#x2014;" horiz-adv-x="640" 
d="M590 243h-540v12h540v-12z" />
    <glyph glyph-name="quoteleft" unicode="&#x2018;" horiz-adv-x="180" 
d="M117 710l6 -5q-22 -16 -35.5 -40.5t-13.5 -44.5t18 -20q13 0 20.5 -8t7.5 -22q0 -13 -8 -21.5t-22 -8.5q-30 0 -30 45q0 81 57 125z" />
    <glyph glyph-name="quoteright" unicode="&#x2019;" horiz-adv-x="180" 
d="M90 710q30 0 30 -45q0 -81 -57 -125l-5 6q21 16 34.5 40.5t13.5 43.5q0 20 -18 20q-12 0 -20 8.5t-8 21.5t8 21.5t22 8.5z" />
    <glyph glyph-name="quotesinglbase" unicode="&#x201a;" horiz-adv-x="180" 
d="M90 50q30 0 30 -45q0 -81 -57 -125l-5 5q21 16 34.5 40.5t13.5 44.5t-18 20q-12 0 -20 8.5t-8 21.5t8 21.5t22 8.5z" />
    <glyph glyph-name="quotedblleft" unicode="&#x201c;" 
d="M117 710l6 -5q-22 -16 -35.5 -40.5t-13.5 -44.5t18 -20q13 0 20.5 -8t7.5 -22q0 -13 -8 -21.5t-22 -8.5q-30 0 -30 45q0 81 57 125zM227 710l6 -5q-22 -16 -35.5 -40.5t-13.5 -44.5t18 -20q13 0 20.5 -8t7.5 -22q0 -13 -8 -21.5t-22 -8.5q-30 0 -30 45q0 81 57 125z" />
    <glyph glyph-name="quotedblright" unicode="&#x201d;" 
d="M145 710q30 0 30 -45q0 -81 -57 -125l-5 6q21 16 34.5 40.5t13.5 43.5q0 20 -18 20q-12 0 -20 8.5t-8 21.5t8 21.5t22 8.5z" />
    <glyph glyph-name="quotedblbase" unicode="&#x201e;" 
d="M145 50q30 0 30 -45q0 -81 -57 -125l-5 5q21 16 34.5 40.5t13.5 44.5t-18 20q-12 0 -20 8.5t-8 21.5t8 21.5t22 8.5z" />
    <glyph glyph-name="dagger" unicode="&#x2020;" horiz-adv-x="440" 
d="M220 710q14 0 22 -9t8 -21q0 -19 -12.5 -60t-13.5 -66q25 1 66 13.5t60 12.5q12 0 21 -8t9 -22t-9 -22t-21 -8q-19 0 -60 12.5t-66 13.5q1 -24 13.5 -100t12.5 -96q0 -4 -13 -126.5t-13 -223.5h-8q0 101 -13 223.5t-13 126.5q0 20 12.5 96t13.5 100q-25 -1 -66 -13.5
t-60 -12.5q-12 0 -21 8t-9 22t9 22t21 8q19 0 60 -12.5t66 -13.5q-1 25 -13.5 66t-12.5 60q0 12 8 21t22 9z" />
    <glyph glyph-name="daggerdbl" unicode="&#x2021;" horiz-adv-x="440" 
d="M220 710q14 0 22 -9t8 -21q0 -19 -12.5 -60t-13.5 -66q25 1 66 13.5t60 12.5q12 0 21 -8t9 -22t-9 -22t-21 -8q-19 0 -60 12.5t-66 13.5q1 -31 13.5 -104.5t12.5 -91.5t-12.5 -91.5t-13.5 -104.5q25 1 66 13.5t60 12.5q12 0 21 -8t9 -22t-9 -22t-21 -8q-19 0 -60 12.5
t-66 13.5q1 -25 13.5 -66t12.5 -60q0 -12 -8 -21t-22 -9t-22 9t-8 21q0 19 12.5 60t13.5 66q-25 -1 -66 -13.5t-60 -12.5q-12 0 -21 8t-9 22t9 22t21 8q19 0 60 -12.5t66 -13.5q-1 31 -13.5 104.5t-12.5 91.5t12.5 91.5t13.5 104.5q-25 -1 -66 -13.5t-60 -12.5q-12 0 -21 8
t-9 22t9 22t21 8q19 0 60 -12.5t66 -13.5q-1 25 -13.5 66t-12.5 60q0 12 8 21t22 9z" />
    <glyph glyph-name="bullet" unicode="&#x2022;" horiz-adv-x="220" 
d="M110 319q32 0 51 -20.5t19 -49.5t-19 -49.5t-51 -20.5t-51 20.5t-19 49.5t19 49.5t51 20.5z" />
    <glyph glyph-name="ellipsis" unicode="&#x2026;" horiz-adv-x="500" 
d="M90 50q13 0 21.5 -8.5t8.5 -21.5q0 -14 -8 -22t-22 -8q-30 0 -30 30q0 13 8 21.5t22 8.5zM250 50q13 0 21.5 -8.5t8.5 -21.5q0 -14 -8 -22t-22 -8q-30 0 -30 30q0 13 8 21.5t22 8.5zM410 50q13 0 21.5 -8.5t8.5 -21.5q0 -14 -8 -22t-22 -8q-30 0 -30 30q0 13 8 21.5
t22 8.5z" />
    <glyph glyph-name="perthousand" unicode="&#x2030;" horiz-adv-x="1075" 
d="M206 700q73 0 114.5 -50.5t41.5 -129.5q0 -80 -41.5 -130t-114.5 -50t-114.5 50t-41.5 130q0 79 41.5 129.5t114.5 50.5zM211 0h-13l307 700h13zM206 696q-105 0 -105 -176t105 -176t105 176t-105 176zM509 360q73 0 114.5 -50.5t41.5 -129.5q0 -80 -41.5 -130
t-114.5 -50t-114.5 50t-41.5 130q0 79 41.5 129.5t114.5 50.5zM869 360q73 0 114.5 -50.5t41.5 -129.5q0 -80 -41.5 -130t-114.5 -50t-114.5 50t-41.5 130q0 79 41.5 129.5t114.5 50.5zM509 356q-105 0 -105 -176t105 -176t105 176t-105 176zM869 356q-105 0 -105 -176
t105 -176t105 176t-105 176z" />
    <glyph glyph-name="guilsinglleft" unicode="&#x2039;" horiz-adv-x="350" 
d="M310 455v-4q-53 -120 -188 -202q135 -82 188 -202v-4q-115 139 -270 203v6q155 64 270 203z" />
    <glyph glyph-name="guilsinglright" unicode="&#x203a;" horiz-adv-x="350" 
d="M40 451v4q115 -139 270 -203v-6q-155 -64 -270 -203v4q53 120 188 202q-135 82 -188 202z" />
    <glyph glyph-name="fraction" unicode="&#x2044;" horiz-adv-x="480" 
d="M93 0h-13l307 700h13z" />
    <glyph glyph-name="euro" unicode="&#x20ac;" horiz-adv-x="790" 
d="M470 702q-106 0 -187 -74t-105 -193h222v-12h-224q-6 -35 -6 -73q0 -39 6 -75h224v-12h-221q24 -118 104.5 -191.5t186.5 -73.5q206 0 240 167l2 10h8v-175h-8v40q0 15 -11 15q-7 0 -27.5 -10l-45.5 -22.5t-68.5 -22.5t-89.5 -10q-124 0 -218.5 75.5t-121.5 197.5h-80v12
h77q-7 34 -7 75t7 73h-77v12h79q27 123 121.5 199t219.5 76q46 0 89.5 -10t68.5 -22.5l45.5 -22.5t27.5 -10q11 0 11 15v40h8v-175h-8l-2 10q-34 167 -240 167z" />
    <glyph glyph-name="trademark" unicode="&#x2122;" horiz-adv-x="950" 
d="M388 598h-4v15q0 35 -18 59t-56 24h-48q-11 0 -14.5 -3.5t-3.5 -14.5v-376q0 -11 3.5 -14.5t14.5 -3.5h21v-4h-127v4h20q12 0 15 3.5t3 14.5v376q0 11 -3 14.5t-15 3.5h-49q-38 0 -55.5 -24t-17.5 -59v-15h-4v102h338v-102zM900 696h-21q-12 0 -15 -3.5t-3 -14.5v-376
q0 -11 3 -14.5t15 -3.5h21v-4h-128v4h21q12 0 15 3.5t3 14.5v382l-159 -404h-4l-170 404v-382q0 -11 3 -14.5t14 -3.5h24v-4h-86v4h24q11 0 14 3.5t3 14.5v378q0 10 -3 13t-15 3h-23v4h91l151 -352l138 352h87v-4z" />
    <glyph glyph-name="oneeighth" unicode="&#x215b;" horiz-adv-x="690" 
d="M170 350h-145v4h38q10 0 12.5 2.5t2.5 12.5v297q0 8 -3 10.5t-12 1.5q-14 -2 -38 -2v4q73 0 89 25h4v-336q0 -10 2.5 -12.5t12.5 -2.5h37v-4zM465 700l-307 -700h-13l307 700h13zM564 191q25 -13 36 -20t28.5 -20.5t24.5 -28.5t7 -34q0 -43 -31 -68t-87 -25q-59 0 -88 23
t-29 60q0 56 90 97q-37 20 -57.5 41.5t-20.5 54.5q0 35 27.5 59.5t79.5 24.5q48 0 75 -22.5t27 -56.5q0 -54 -82 -85zM475 286q0 -32 21.5 -51.5t63.5 -41.5q54 23 54 84q0 37 -21 55.5t-49 18.5q-25 0 -47 -16.5t-22 -48.5zM542 -1q42 0 61 21.5t19 51.5q0 10 -2.5 18.5
t-6 15t-11.5 14l-12.5 12t-16 11.5t-17 10l-19.5 10.5t-18 9.5q-31 -16 -47 -36t-16 -58q0 -37 22 -58.5t64 -21.5z" />
    <glyph glyph-name="threeeighths" unicode="&#x215c;" horiz-adv-x="761" 
d="M256 439q0 -47 -35.5 -70.5t-90.5 -23.5q-40 0 -70 19t-30 40q0 18 18 18q19 0 19 -18q0 -55 63 -55q86 0 86 88q0 91 -108 93q-7 -1 -14 -2.5t-11 -1.5q-7 0 -7 6q0 5 7 5q3 0 10.5 -1.5t14.5 -1.5q99 2 99 89q0 35 -20 56.5t-57 21.5q-20 0 -32 -5t-16.5 -15.5
t-5.5 -17t-1 -17.5q0 -18 -19 -18q-18 0 -18 18q0 21 28 40t64 19q52 0 83 -21t31 -60t-35 -62.5t-78 -29.5q48 -4 86.5 -26.5t38.5 -66.5zM536 700l-307 -700h-13l307 700h13zM635 191q25 -13 36 -20t28.5 -20.5t24.5 -28.5t7 -34q0 -43 -31 -68t-87 -25q-59 0 -88 23
t-29 60q0 56 90 97q-37 20 -57.5 41.5t-20.5 54.5q0 35 27.5 59.5t79.5 24.5q48 0 75 -22.5t27 -56.5q0 -54 -82 -85zM546 286q0 -32 21.5 -51.5t63.5 -41.5q54 23 54 84q0 37 -21 55.5t-49 18.5q-25 0 -47 -16.5t-22 -48.5zM613 -1q42 0 61 21.5t19 51.5q0 10 -2.5 18.5
t-6 15t-11.5 14l-12.5 12t-16 11.5t-17 10l-19.5 10.5t-18 9.5q-31 -16 -47 -36t-16 -58q0 -37 22 -58.5t64 -21.5z" />
    <glyph glyph-name="fiveeighths" unicode="&#x215d;" horiz-adv-x="765" 
d="M255 451q0 -53 -36 -79.5t-89 -26.5q-40 0 -70 19t-30 40q0 18 18 18q19 0 19 -18q0 -55 63 -55q84 0 84 101t-80 101q-46 0 -77 -31h-4l13 180q25 0 77 -8.5t69 -8.5q29 0 29 26h4q0 -56 -63 -56q-20 0 -58.5 5t-55.5 5l-10 -136q33 28 78 28q53 0 86 -26.5t33 -77.5z
M540 700l-307 -700h-13l307 700h13zM639 191q25 -13 36 -20t28.5 -20.5t24.5 -28.5t7 -34q0 -43 -31 -68t-87 -25q-59 0 -88 23t-29 60q0 56 90 97q-37 20 -57.5 41.5t-20.5 54.5q0 35 27.5 59.5t79.5 24.5q48 0 75 -22.5t27 -56.5q0 -54 -82 -85zM550 286q0 -32 21.5 -51.5
t63.5 -41.5q54 23 54 84q0 37 -21 55.5t-49 18.5q-25 0 -47 -16.5t-22 -48.5zM617 -1q42 0 61 21.5t19 51.5q0 10 -2.5 18.5t-6 15t-11.5 14l-12.5 12t-16 11.5t-17 10l-19.5 10.5t-18 9.5q-31 -16 -47 -36t-16 -58q0 -37 22 -58.5t64 -21.5z" />
    <glyph glyph-name="seveneighths" unicode="&#x215e;" horiz-adv-x="709" 
d="M260 705h4q-13 -30 -38.5 -71.5l-43.5 -71t-32 -80t-14 -109.5q0 -28 -20 -28t-20 26q0 45 28.5 103.5t71 122.5t51.5 81q-28 -32 -65 -32q-25 0 -65.5 11t-54.5 11q-19 0 -28.5 -10t-9.5 -24v-16h-4v82h4v-52q6 57 70 57q25 0 70.5 -16t62.5 -16q19 0 33 32zM484 700
l-307 -700h-13l307 700h13zM583 191q25 -13 36 -20t28.5 -20.5t24.5 -28.5t7 -34q0 -43 -31 -68t-87 -25q-59 0 -88 23t-29 60q0 56 90 97q-37 20 -57.5 41.5t-20.5 54.5q0 35 27.5 59.5t79.5 24.5q48 0 75 -22.5t27 -56.5q0 -54 -82 -85zM494 286q0 -32 21.5 -51.5
t63.5 -41.5q54 23 54 84q0 37 -21 55.5t-49 18.5q-25 0 -47 -16.5t-22 -48.5zM561 -1q42 0 61 21.5t19 51.5q0 10 -2.5 18.5t-6 15t-11.5 14l-12.5 12t-16 11.5t-17 10l-19.5 10.5t-18 9.5q-31 -16 -47 -36t-16 -58q0 -37 22 -58.5t64 -21.5z" />
    <glyph glyph-name="arrowleft" unicode="&#x2190;" horiz-adv-x="820" 
d="M289 485l5 -5q-25 -56 -44 -124h174l61 87q9 12 24 12h45l-67 -99h45l61 87q9 12 24 12h45l-67 -99h45l61 87q9 12 24 12h45l-75 -105l75 -105h-45q-15 0 -24 12l-61 87h-45l67 -99h-45q-15 0 -24 12l-61 87h-45l67 -99h-45q-15 0 -24 12l-61 87h-174q19 -68 44 -124
l-5 -5q-134 100 -239 130v10q105 30 239 130z" />
    <glyph glyph-name="arrowup" unicode="&#x2191;" horiz-adv-x="420" 
d="M205 710h10q30 -105 130 -239l-5 -5q-56 25 -124 44v-174l87 -61q12 -9 12 -24v-45l-99 67v-45l87 -61q12 -9 12 -24v-45l-99 67v-45l87 -61q12 -9 12 -24v-45l-105 75l-105 -75v45q0 15 12 24l87 61v45l-99 -67v45q0 15 12 24l87 61v45l-99 -67v45q0 15 12 24l87 61v174
q-68 -19 -124 -44l-5 5q100 134 130 239z" />
    <glyph glyph-name="arrowright" unicode="&#x2192;" horiz-adv-x="820" 
d="M526 480l5 5q134 -100 239 -130v-10q-105 -30 -239 -130l-5 5q25 56 44 124h-174l-61 -87q-9 -12 -24 -12h-45l67 99h-45l-61 -87q-9 -12 -24 -12h-45l67 99h-45l-61 -87q-9 -12 -24 -12h-45l75 105l-75 105h45q15 0 24 -12l61 -87h45l-67 99h45q15 0 24 -12l61 -87h45
l-67 99h45q15 0 24 -12l61 -87h174q-19 68 -44 124z" />
    <glyph glyph-name="arrowdown" unicode="&#x2193;" horiz-adv-x="420" 
d="M315 710v-45q0 -15 -12 -24l-87 -61v-45l99 67v-45q0 -15 -12 -24l-87 -61v-45l99 67v-45q0 -15 -12 -24l-87 -61v-174q68 19 124 44l5 -5q-100 -134 -130 -239h-10q-30 105 -130 239l5 5q56 -25 124 -44v174l-87 61q-12 9 -12 24v45l99 -67v45l-87 61q-12 9 -12 24v45
l99 -67v45l-87 61q-12 9 -12 24v45l105 -75z" />
    <glyph glyph-name="arrowboth" unicode="&#x2194;" horiz-adv-x="820" 
d="M526 480l5 5q134 -100 239 -130v-10q-105 -30 -239 -130l-5 5q25 56 44 124h-320q19 -68 44 -124l-5 -5q-134 100 -239 130v10q105 30 239 130l5 -5q-25 -56 -44 -124h320q-19 68 -44 124z" />
    <glyph glyph-name="arrowupdown" unicode="&#x2195;" horiz-adv-x="420" 
d="M205 710h10q30 -105 130 -239l-5 -5q-56 25 -124 44v-320q68 19 124 44l5 -5q-100 -134 -130 -239h-10q-30 105 -130 239l5 5q56 -25 124 -44v320q-68 -19 -124 -44l-5 5q100 134 130 239z" />
    <glyph glyph-name="arrowupleft" unicode="&#x2196;" horiz-adv-x="687" 
d="M134 341h-7q-23 164 -77 261l7 7q97 -54 261 -77v-7q-60 -23 -119 -57l123 -123l105 19q15 1 25 -9l32 -32l-117 -22l32 -32l104 18q15 3 26 -8l31 -32l-117 -23l32 -31l105 18q15 2 25 -8l32 -32l-127 -22l-22 -127l-32 32q-10 10 -8 25l18 105l-31 32l-23 -117l-32 31
q-11 11 -8 26l18 104l-32 32l-22 -117l-32 32q-10 10 -9 25l19 105l-123 123q-34 -59 -57 -119z" />
    <glyph glyph-name="arrowupright" unicode="&#x2197;" horiz-adv-x="687" 
d="M560 341h-7q-23 60 -57 119l-123 -123l19 -105q1 -15 -9 -25l-32 -32l-22 117l-32 -32l18 -104q3 -15 -8 -26l-32 -31l-23 117l-31 -32l18 -105q2 -15 -8 -25l-32 -32l-22 127l-127 22l32 32q10 10 25 8l105 -18l32 31l-117 23l31 32q11 11 26 8l104 -18l32 32l-117 22
l32 32q10 10 25 9l105 -19l123 123q-59 34 -119 57v7q164 23 261 77l7 -7q-54 -97 -77 -261z" />
    <glyph glyph-name="arrowdownright" unicode="&#x2198;" horiz-adv-x="687" 
d="M553 360h7q23 -164 77 -261l-7 -7q-97 54 -261 77v7q60 23 119 57l-123 123l-105 -19q-15 -1 -25 9l-32 32l117 22l-32 32l-104 -18q-15 -3 -26 8l-31 32l117 23l-32 31l-105 -18q-15 -2 -25 8l-32 32l127 22l22 127l32 -32q10 -10 8 -25l-18 -105l31 -32l23 117l32 -31
q11 -11 8 -26l-18 -104l32 -32l22 117l32 -32q10 -10 9 -25l-19 -105l123 -123q34 59 57 119z" />
    <glyph glyph-name="arrowdownleft" unicode="&#x2199;" horiz-adv-x="687" 
d="M127 360h7q23 -60 57 -119l123 123l-19 105q-1 15 9 25l32 32l22 -117l32 32l-18 104q-3 15 8 26l32 31l23 -117l31 32l-18 105q-2 15 8 25l32 32l22 -127l127 -22l-32 -32q-10 -10 -25 -8l-105 18l-32 -31l117 -23l-31 -32q-11 -11 -26 -8l-104 18l-32 -32l117 -22
l-32 -32q-10 -10 -25 -9l-105 19l-123 -123q59 -34 119 -57v-7q-164 -23 -261 -77l-7 7q54 97 77 261z" />
    <glyph glyph-name="partialdiff" unicode="&#x2202;" horiz-adv-x="565" 
d="M290 750q108 0 166.5 -87.5t58.5 -244.5q0 -56 -6 -109.5t-24 -113t-46 -103.5t-77 -73t-112 -29q-100 0 -150 61.5t-50 158.5q0 35 6.5 71.5t25.5 79t48.5 74.5t80 53.5t114.5 21.5q95 0 141 -41q-1 83 -14 138.5t-38.5 84t-55 39.5t-69.5 11q-110 0 -172 -98l-3 6
q63 100 176 100zM324 502q-66 0 -113.5 -32t-70 -83t-32 -97.5t-9.5 -92.5q0 -93 39 -146t112 -53q42 0 75.5 16.5t55.5 42.5t38.5 65.5t25 77.5t13.5 87.5t6.5 86.5t1.5 82q-45 46 -142 46z" />
    <glyph glyph-name="emptyset" unicode="&#x2205;" horiz-adv-x="820" 
d="M410 710q145 0 251 -101l75 75l8 -8l-75 -75q101 -106 101 -251q0 -149 -105.5 -254.5t-254.5 -105.5q-145 0 -251 101l-75 -75l-8 8l75 75q-101 106 -101 251q0 149 105.5 254.5t254.5 105.5zM410 698q-144 0 -246 -102t-102 -246q0 -141 98 -242l492 492
q-101 98 -242 98zM660 592l-492 -492q101 -98 242 -98q144 0 246 102t102 246q0 141 -98 242z" />
    <glyph glyph-name="product" unicode="&#x220f;" horiz-adv-x="740" 
d="M690 692h-40q-20 0 -25 -5t-5 -25v-624q0 -20 5 -25t25 -5h40v-8h-190v8h40q20 0 25 5t5 25v654h-400v-654q0 -20 5 -25t25 -5h40v-8h-190v8h40q20 0 25 5t5 25v624q0 20 -5 25t-25 5h-40v8h640v-8z" />
    <glyph glyph-name="summation" unicode="&#x2211;" horiz-adv-x="645" 
d="M550 536h-8v30q0 57 -27.5 91.5t-82.5 34.5h-302l215 -334l-225 -350h337q55 0 82.5 34.5t27.5 91.5v30h8v-164h-515v8l225 350l-215 334v8h480v-164z" />
    <glyph glyph-name="minus" unicode="&#x2212;" horiz-adv-x="470" 
d="M420 293h-370v12h370v-12z" />
    <glyph glyph-name="radical" unicode="&#x221a;" horiz-adv-x="680" 
d="M374 -5h-12l-100 248h-212v12h220l98 -243l250 688h12z" />
    <glyph glyph-name="infinity" unicode="&#x221e;" horiz-adv-x="765" 
d="M580 395q61 0 98 -41t37 -104t-37 -104t-98 -41q-34 0 -62.5 10.5t-54 33t-41.5 41t-40 50.5q-23 -32 -39.5 -51t-41.5 -41t-53.5 -32.5t-62.5 -10.5q-61 0 -98 39t-37 106t37 106t98 39q63 0 106 -34.5t91 -100.5q24 32 40 50.5t41.5 41t54 33t62.5 10.5zM185 117
q32 0 59.5 10t52 32.5t39 40t39.5 50.5q-25 33 -39.5 50.5t-39 40t-52 32.5t-59.5 10q-55 0 -89 -35.5t-34 -97.5t34 -97.5t89 -35.5zM580 117q56 0 89.5 36.5t33.5 96.5t-33.5 96.5t-89.5 36.5q-32 0 -59 -10t-51.5 -32.5t-40 -40.5t-39.5 -50q24 -32 39.5 -50t40 -40.5
t51.5 -32.5t59 -10z" />
    <glyph glyph-name="integral" unicode="&#x222b;" horiz-adv-x="332" 
d="M256 750q32 0 53.5 -16t21.5 -34q0 -25 -25 -25t-25 25q0 5 2.5 13.5t2.5 12.5q0 16 -30 16q-39 0 -52.5 -27.5t-13.5 -88.5l1 -730q0 -71 -31 -108.5t-85 -37.5q-32 0 -53.5 15.5t-21.5 34.5q0 25 25 25t25 -25q0 -5 -2.5 -13.5t-2.5 -12.5q0 -16 30 -16q39 0 52.5 27.5
t13.5 88.5l-1 730q0 71 31 108.5t85 37.5z" />
    <glyph glyph-name="approxequal" unicode="&#x2248;" horiz-adv-x="440" 
d="M382 421h8q0 -38 -18.5 -59.5t-49.5 -21.5q-25 0 -106.5 23t-104.5 23q-26 0 -39.5 -13t-13.5 -33h-8q0 38 19.5 59.5t52.5 21.5q26 0 104.5 -23t102.5 -23q26 0 39.5 13t13.5 33zM382 241h8q0 -38 -18.5 -59.5t-49.5 -21.5q-25 0 -106.5 23t-104.5 23q-26 0 -39.5 -13
t-13.5 -33h-8q0 38 19.5 59.5t52.5 21.5q26 0 104.5 -23t102.5 -23q26 0 39.5 13t13.5 33z" />
    <glyph glyph-name="notequal" unicode="&#x2260;" horiz-adv-x="470" 
d="M268 363l-54 -148h206v-12h-210l-75 -203l-10 6l72 197h-147v12h152l54 148h-206v12h210l75 203l10 -6l-72 -197h147v-12h-152z" />
    <glyph glyph-name="lessequal" unicode="&#x2264;" horiz-adv-x="470" 
d="M420 413l-348 -74l348 -74v-12l-370 80v12l370 80v-12zM420 143h-370v12h370v-12z" />
    <glyph glyph-name="greaterequal" unicode="&#x2265;" horiz-adv-x="470" 
d="M420 345v-12l-370 -80v12l348 74l-348 74v12zM420 155v-12h-370v12h370z" />
    <glyph glyph-name="lozenge" unicode="&#x25ca;" horiz-adv-x="390" 
d="M340 249l-145 -145l-145 145l145 145zM67 249l128 -128l128 128l-128 128z" />
    <glyph glyph-name="idotaccent" horiz-adv-x="250" 
d="M125 650q14 0 24.5 -10.5t10.5 -24.5t-10.5 -24.5t-24.5 -10.5t-24.5 10.5t-10.5 24.5t10.5 24.5t24.5 10.5zM150 500v-462q0 -20 5 -25t25 -5h40v-8h-190v8h40q20 0 25 5t5 25v404q0 20 -6.5 27t-23.5 3l-40 -10v8z" />
    <glyph glyph-name="j.alt" horiz-adv-x="230" 
d="M125 650q14 0 24.5 -10.5t10.5 -24.5t-10.5 -24.5t-24.5 -10.5t-24.5 10.5t-10.5 24.5t10.5 24.5t24.5 10.5zM150 500v-604q0 -70 -31.5 -108t-85.5 -38v8q39 0 53 29.5t14 90.5v564q0 20 -6.5 27t-23.5 3l-40 -10v8z" />
    <glyph glyph-name="a.ss01" horiz-adv-x="555" 
d="M525 492h-40q-19 0 -24.5 -5t-5.5 -25v-424q0 -20 5.5 -25t24.5 -5h40v-8h-120v154q-15 -78 -62 -121t-103 -43q-94 0 -144.5 70.5t-50.5 189.5t50.5 189.5t144.5 70.5q56 0 103 -42.5t62 -121.5v154h120v-8zM405 222v56q0 94 -46 159t-119 65t-109 -67.5t-36 -184.5
t36 -184.5t109 -67.5t119 65t46 159z" />
    <glyph glyph-name="aacute.ss01" horiz-adv-x="555" 
d="M388 700q11 0 18.5 -7.5t7.5 -20.5t-10.5 -26.5t-35 -29l-38.5 -24t-48 -24.5t-37 -18l-3 6q41 21 62 42t36 56q20 46 48 46zM525 492h-40q-19 0 -24.5 -5t-5.5 -25v-424q0 -20 5.5 -25t24.5 -5h40v-8h-120v154q-15 -78 -62 -121t-103 -43q-94 0 -144.5 70.5t-50.5 189.5
t50.5 189.5t144.5 70.5q56 0 103 -42.5t62 -121.5v154h120v-8zM405 222v56q0 94 -46 159t-119 65t-109 -67.5t-36 -184.5t36 -184.5t109 -67.5t119 65t46 159z" />
    <glyph glyph-name="abreve.ss01" horiz-adv-x="555" 
d="M399 683h8q-11 -67 -46 -100t-84 -33q-48 0 -81 33t-44 100h8q7 -38 33.5 -65.5t83.5 -27.5q58 0 86.5 27.5t35.5 65.5zM525 492h-40q-19 0 -24.5 -5t-5.5 -25v-424q0 -20 5.5 -25t24.5 -5h40v-8h-120v154q-15 -78 -62 -121t-103 -43q-94 0 -144.5 70.5t-50.5 189.5
t50.5 189.5t144.5 70.5q56 0 103 -42.5t62 -121.5v154h120v-8zM405 222v56q0 94 -46 159t-119 65t-109 -67.5t-36 -184.5t36 -184.5t109 -67.5t119 65t46 159z" />
    <glyph glyph-name="acircumflex.ss01" horiz-adv-x="555" 
d="M274 700h9q21 -33 65.5 -78.5t81.5 -65.5l-4 -8q-98 43 -148 87q-47 -43 -148 -87l-4 8q37 20 82 65.5t66 78.5zM525 492h-40q-19 0 -24.5 -5t-5.5 -25v-424q0 -20 5.5 -25t24.5 -5h40v-8h-120v154q-15 -78 -62 -121t-103 -43q-94 0 -144.5 70.5t-50.5 189.5t50.5 189.5
t144.5 70.5q56 0 103 -42.5t62 -121.5v154h120v-8zM405 222v56q0 94 -46 159t-119 65t-109 -67.5t-36 -184.5t36 -184.5t109 -67.5t119 65t46 159z" />
    <glyph glyph-name="adieresis.ss01" horiz-adv-x="555" 
d="M198 650q14 0 24.5 -10.5t10.5 -24.5t-10.5 -24.5t-24.5 -10.5t-24.5 10.5t-10.5 24.5t10.5 24.5t24.5 10.5zM358 650q14 0 24.5 -10.5t10.5 -24.5t-10.5 -24.5t-24.5 -10.5t-24.5 10.5t-10.5 24.5t10.5 24.5t24.5 10.5zM525 492h-40q-19 0 -24.5 -5t-5.5 -25v-424
q0 -20 5.5 -25t24.5 -5h40v-8h-120v154q-15 -78 -62 -121t-103 -43q-94 0 -144.5 70.5t-50.5 189.5t50.5 189.5t144.5 70.5q56 0 103 -42.5t62 -121.5v154h120v-8zM405 222v56q0 94 -46 159t-119 65t-109 -67.5t-36 -184.5t36 -184.5t109 -67.5t119 65t46 159z" />
    <glyph glyph-name="agrave.ss01" horiz-adv-x="555" 
d="M188 700q28 0 48 -46q15 -35 36 -56t62 -42l-3 -6q-3 2 -37 18t-48 24.5l-38.5 24t-35 29t-10.5 26.5t7.5 20.5t18.5 7.5zM525 492h-40q-19 0 -24.5 -5t-5.5 -25v-424q0 -20 5.5 -25t24.5 -5h40v-8h-120v154q-15 -78 -62 -121t-103 -43q-94 0 -144.5 70.5t-50.5 189.5
t50.5 189.5t144.5 70.5q56 0 103 -42.5t62 -121.5v154h120v-8zM405 222v56q0 94 -46 159t-119 65t-109 -67.5t-36 -184.5t36 -184.5t109 -67.5t119 65t46 159z" />
    <glyph glyph-name="amacron.ss01" horiz-adv-x="555" 
d="M403 600h-250v12h250v-12zM525 492h-40q-19 0 -24.5 -5t-5.5 -25v-424q0 -20 5.5 -25t24.5 -5h40v-8h-120v154q-15 -78 -62 -121t-103 -43q-94 0 -144.5 70.5t-50.5 189.5t50.5 189.5t144.5 70.5q56 0 103 -42.5t62 -121.5v154h120v-8zM405 222v56q0 94 -46 159t-119 65
t-109 -67.5t-36 -184.5t36 -184.5t109 -67.5t119 65t46 159z" />
    <glyph glyph-name="aogonek.ss01" horiz-adv-x="555" 
d="M562 -165l1 -6q-27 -29 -73 -29q-30 0 -51 16t-21 49q0 63 99 135h-112v154q-15 -78 -62 -121t-103 -43q-94 0 -144.5 70.5t-50.5 189.5t50.5 189.5t144.5 70.5q56 0 103 -42.5t62 -121.5v154h120v-8h-40q-19 0 -24.5 -5t-5.5 -25v-424q0 -20 5.5 -25t24.5 -5h40v-8
q-31 -25 -54 -62.5t-23 -67.5q0 -25 14.5 -40.5t38.5 -15.5q33 0 61 21zM405 222v56q0 94 -46 159t-119 65t-109 -67.5t-36 -184.5t36 -184.5t109 -67.5t119 65t46 159z" />
    <glyph glyph-name="aring.ss01" horiz-adv-x="555" 
d="M278 780q45 0 75 -30t30 -75t-30 -75t-75 -30t-75 30t-30 75t30 75t75 30zM278 768q-41 0 -67 -26t-26 -67t26 -67t67 -26t67 26t26 67t-26 67t-67 26zM525 492h-40q-19 0 -24.5 -5t-5.5 -25v-424q0 -20 5.5 -25t24.5 -5h40v-8h-120v154q-15 -78 -62 -121t-103 -43
q-94 0 -144.5 70.5t-50.5 189.5t50.5 189.5t144.5 70.5q56 0 103 -42.5t62 -121.5v154h120v-8zM405 222v56q0 94 -46 159t-119 65t-109 -67.5t-36 -184.5t36 -184.5t109 -67.5t119 65t46 159z" />
    <glyph glyph-name="atilde.ss01" horiz-adv-x="555" 
d="M410 661h8q0 -38 -18.5 -59.5t-49.5 -21.5q-25 0 -76.5 23t-74.5 23q-26 0 -39.5 -13t-13.5 -33h-8q0 38 19.5 59.5t52.5 21.5q26 0 74.5 -23t72.5 -23q26 0 39.5 13t13.5 33zM525 492h-40q-19 0 -24.5 -5t-5.5 -25v-424q0 -20 5.5 -25t24.5 -5h40v-8h-120v154
q-15 -78 -62 -121t-103 -43q-94 0 -144.5 70.5t-50.5 189.5t50.5 189.5t144.5 70.5q56 0 103 -42.5t62 -121.5v154h120v-8zM405 222v56q0 94 -46 159t-119 65t-109 -67.5t-36 -184.5t36 -184.5t109 -67.5t119 65t46 159z" />
    <glyph glyph-name="g.ss01" horiz-adv-x="555" 
d="M525 492h-40q-19 0 -24.5 -5t-5.5 -25v-482q0 -106 -58 -168t-172 -62q-72 0 -128.5 37.5t-56.5 77.5q0 25 25 25t25 -25v-10q0 -35 30.5 -66t104.5 -31q86 0 133 55t47 167v174q-15 -78 -62 -121t-103 -43q-94 0 -144.5 70.5t-50.5 189.5t50.5 189.5t144.5 70.5
q56 0 103 -42.5t62 -121.5v154h120v-8zM95 250q0 -117 36 -184.5t109 -67.5t119 65t46 159v56q0 94 -46 159t-119 65t-109 -67.5t-36 -184.5z" />
    <glyph glyph-name="gbreve.ss01" horiz-adv-x="555" 
d="M384 683h8q-11 -67 -46 -100t-84 -33q-48 0 -81 33t-44 100h8q7 -38 33.5 -65.5t83.5 -27.5q58 0 86.5 27.5t35.5 65.5zM525 492h-40q-19 0 -24.5 -5t-5.5 -25v-482q0 -106 -58 -168t-172 -62q-72 0 -128.5 37.5t-56.5 77.5q0 25 25 25t25 -25v-10q0 -35 30.5 -66
t104.5 -31q86 0 133 55t47 167v174q-15 -78 -62 -121t-103 -43q-94 0 -144.5 70.5t-50.5 189.5t50.5 189.5t144.5 70.5q56 0 103 -42.5t62 -121.5v154h120v-8zM95 250q0 -117 36 -184.5t109 -67.5t119 65t46 159v56q0 94 -46 159t-119 65t-109 -67.5t-36 -184.5z" />
    <glyph glyph-name="gcommaaccent.ss01" horiz-adv-x="555" 
d="M263 560q-30 0 -30 45q0 44 18 64.5t42 20.5v-8q-20 0 -33.5 -15t-13.5 -31t17 -16q30 0 30 -30q0 -13 -8 -21.5t-22 -8.5zM525 492h-40q-19 0 -24.5 -5t-5.5 -25v-482q0 -106 -58 -168t-172 -62q-72 0 -128.5 37.5t-56.5 77.5q0 25 25 25t25 -25v-10q0 -35 30.5 -66
t104.5 -31q86 0 133 55t47 167v174q-15 -78 -62 -121t-103 -43q-94 0 -144.5 70.5t-50.5 189.5t50.5 189.5t144.5 70.5q56 0 103 -42.5t62 -121.5v154h120v-8zM95 250q0 -117 36 -184.5t109 -67.5t119 65t46 159v56q0 94 -46 159t-119 65t-109 -67.5t-36 -184.5z" />
    <glyph glyph-name="gdotaccent.ss01" horiz-adv-x="555" 
d="M263 650q14 0 24.5 -10.5t10.5 -24.5t-10.5 -24.5t-24.5 -10.5t-24.5 10.5t-10.5 24.5t10.5 24.5t24.5 10.5zM525 492h-40q-19 0 -24.5 -5t-5.5 -25v-482q0 -106 -58 -168t-172 -62q-72 0 -128.5 37.5t-56.5 77.5q0 25 25 25t25 -25v-10q0 -35 30.5 -66t104.5 -31
q86 0 133 55t47 167v174q-15 -78 -62 -121t-103 -43q-94 0 -144.5 70.5t-50.5 189.5t50.5 189.5t144.5 70.5q56 0 103 -42.5t62 -121.5v154h120v-8zM95 250q0 -117 36 -184.5t109 -67.5t119 65t46 159v56q0 94 -46 159t-119 65t-109 -67.5t-36 -184.5z" />
    <glyph glyph-name="y.ss01" horiz-adv-x="570" 
d="M490 500v-520q0 -106 -58 -168t-172 -62q-72 0 -128.5 37.5t-56.5 77.5q0 25 25 25t25 -25v-10q0 -35 30.5 -66t104.5 -31q86 0 133 55t47 167v171q-15 -77 -62 -119t-103 -42q-86 0 -130.5 47t-44.5 128v277q0 20 -6.5 27t-23.5 3l-40 -10v8l120 30v-335
q0 -167 125 -167q73 0 119 65t46 156v223q0 20 -6.5 27t-23.5 3l-40 -10v8z" />
    <glyph glyph-name="yacute.ss01" horiz-adv-x="570" 
d="M398 700q11 0 18.5 -7.5t7.5 -20.5t-10.5 -26.5t-35 -29l-38.5 -24t-48 -24.5t-37 -18l-3 6q41 21 62 42t36 56q20 46 48 46zM490 500v-520q0 -106 -58 -168t-172 -62q-72 0 -128.5 37.5t-56.5 77.5q0 25 25 25t25 -25v-10q0 -35 30.5 -66t104.5 -31q86 0 133 55t47 167
v171q-15 -77 -62 -119t-103 -42q-86 0 -130.5 47t-44.5 128v277q0 20 -6.5 27t-23.5 3l-40 -10v8l120 30v-335q0 -167 125 -167q73 0 119 65t46 156v223q0 20 -6.5 27t-23.5 3l-40 -10v8z" />
    <glyph glyph-name="ycircumflex.ss01" horiz-adv-x="570" 
d="M284 700h9q21 -33 65.5 -78.5t81.5 -65.5l-4 -8q-98 43 -148 87q-47 -43 -148 -87l-4 8q37 20 82 65.5t66 78.5zM490 500v-520q0 -106 -58 -168t-172 -62q-72 0 -128.5 37.5t-56.5 77.5q0 25 25 25t25 -25v-10q0 -35 30.5 -66t104.5 -31q86 0 133 55t47 167v171
q-15 -77 -62 -119t-103 -42q-86 0 -130.5 47t-44.5 128v277q0 20 -6.5 27t-23.5 3l-40 -10v8l120 30v-335q0 -167 125 -167q73 0 119 65t46 156v223q0 20 -6.5 27t-23.5 3l-40 -10v8z" />
    <glyph glyph-name="ydieresis.ss01" horiz-adv-x="570" 
d="M208 650q14 0 24.5 -10.5t10.5 -24.5t-10.5 -24.5t-24.5 -10.5t-24.5 10.5t-10.5 24.5t10.5 24.5t24.5 10.5zM368 650q14 0 24.5 -10.5t10.5 -24.5t-10.5 -24.5t-24.5 -10.5t-24.5 10.5t-10.5 24.5t10.5 24.5t24.5 10.5zM490 500v-520q0 -106 -58 -168t-172 -62
q-72 0 -128.5 37.5t-56.5 77.5q0 25 25 25t25 -25v-10q0 -35 30.5 -66t104.5 -31q86 0 133 55t47 167v171q-15 -77 -62 -119t-103 -42q-86 0 -130.5 47t-44.5 128v277q0 20 -6.5 27t-23.5 3l-40 -10v8l120 30v-335q0 -167 125 -167q73 0 119 65t46 156v223q0 20 -6.5 27
t-23.5 3l-40 -10v8z" />
    <glyph glyph-name="ygrave.ss01" horiz-adv-x="570" 
d="M198 700q28 0 48 -46q15 -35 36 -56t62 -42l-3 -6q-3 2 -37 18t-48 24.5l-38.5 24t-35 29t-10.5 26.5t7.5 20.5t18.5 7.5zM490 500v-520q0 -106 -58 -168t-172 -62q-72 0 -128.5 37.5t-56.5 77.5q0 25 25 25t25 -25v-10q0 -35 30.5 -66t104.5 -31q86 0 133 55t47 167v171
q-15 -77 -62 -119t-103 -42q-86 0 -130.5 47t-44.5 128v277q0 20 -6.5 27t-23.5 3l-40 -10v8l120 30v-335q0 -167 125 -167q73 0 119 65t46 156v223q0 20 -6.5 27t-23.5 3l-40 -10v8z" />
    <glyph glyph-name="C_H" horiz-adv-x="1070" 
d="M662 175h8v-175h-8v40q0 15 -11 15q-7 0 -27.5 -10l-45.5 -22.5t-68.5 -22.5t-89.5 -10q-147 0 -248.5 102.5t-101.5 257.5t101.5 257.5t248.5 102.5q46 0 89.5 -10t68.5 -22.5l45.5 -22.5t27.5 -10q11 0 11 15v40h8v-175h-8l-2 10q-34 167 -240 167q-126 0 -213 -100.5
t-87 -251.5t87 -251.5t213 -100.5q206 0 240 167zM1020 692h-40q-20 0 -25 -5t-5 -25v-624q0 -20 5 -25t25 -5h40v-8h-190v8h40q20 0 25 5t5 25v320h-460v-170q0 -20 5 -25t25 -5h40v-8h-190v8h40q20 0 25 5t5 25v324q0 20 -5 25t-25 5h-40v8h190v-8h-40q-20 0 -25 -5
t-5 -25v-146h460v296q0 20 -5 25t-25 5h-40v8h190v-8z" />
    <glyph glyph-name="C_I" horiz-adv-x="740" 
d="M420 710q46 0 89.5 -10t68.5 -22.5l45.5 -22.5t27.5 -10q11 0 11 15v40h8v-175h-8l-2 10q-34 167 -240 167q-126 0 -213 -100.5t-87 -251.5t87 -251.5t213 -100.5q206 0 240 167l2 10h8v-175h-8v40q0 15 -11 15q-7 0 -27.5 -10l-45.5 -22.5t-68.5 -22.5t-89.5 -10
q-147 0 -248.5 102.5t-101.5 257.5t101.5 257.5t248.5 102.5zM510 542h-40q-20 0 -25 -5t-5 -25v-324q0 -20 5 -25t25 -5h40v-8h-190v8h40q20 0 25 5t5 25v324q0 20 -5 25t-25 5h-40v8h190v-8z" />
    <glyph glyph-name="L_A" horiz-adv-x="915" 
d="M910 8v-8h-200v8h53q16 0 19 7t-4 23l-82 195h-325l-17 -43q-13 -32 15 -32h60v-8h-160v8h35q20 0 26.5 5t14.5 25l202 517h8l278 -667q8 -19 16.5 -24.5t29.5 -5.5h31zM522 164h8v-164h-480v8h40q20 0 25 5t5 25v624q0 20 -5 25t-25 5h-40v8h190v-8h-40q-20 0 -25 -5
t-5 -25v-624q0 -20 5 -25t25 -5h216q106 0 106 126v30zM693 241l-165 392l-154 -392h319z" />
    <glyph glyph-name="L_I" horiz-adv-x="640" 
d="M240 692h-40q-20 0 -25 -5t-5 -25v-624q0 -20 5 -25t25 -5h216q106 0 106 126v30h8v-164h-480v8h40q20 0 25 5t5 25v624q0 20 -5 25t-25 5h-40v8h190v-8zM590 692h-40q-20 0 -25 -5t-5 -25v-324q0 -20 5 -25t25 -5h40v-8h-190v8h40q20 0 25 5t5 25v324q0 20 -5 25t-25 5
h-40v8h190v-8z" />
    <glyph glyph-name="O_I" horiz-adv-x="840" 
d="M420 710q147 0 248.5 -102.5t101.5 -257.5t-101.5 -257.5t-248.5 -102.5t-248.5 102.5t-101.5 257.5t101.5 257.5t248.5 102.5zM420 702q-126 0 -213 -100.5t-87 -251.5t87 -251.5t213 -100.5t213 100.5t87 251.5t-87 251.5t-213 100.5zM510 542h-40q-20 0 -25 -5t-5 -25
v-324q0 -20 5 -25t25 -5h40v-8h-190v8h40q20 0 25 5t5 25v324q0 20 -5 25t-25 5h-40v8h190v-8z" />
    <glyph glyph-name="U_I" horiz-adv-x="715" 
d="M680 692h-38q-20 0 -25 -5t-5 -25v-437q0 -122 -70.5 -178.5t-176.5 -56.5q-265 0 -265 250v422q0 20 -5 25t-25 5h-40v8h190v-8h-40q-20 0 -25 -5t-5 -25v-437q0 -227 215 -227q103 0 171 54.5t68 172.5v437q0 20 -5 25t-25 5h-38v8h144v-8zM470 692h-40q-20 0 -25 -5
t-5 -25v-324q0 -20 5 -25t25 -5h40v-8h-190v8h40q20 0 25 5t5 25v324q0 20 -5 25t-25 5h-40v8h190v-8z" />
    <glyph glyph-name="zero.lf" horiz-adv-x="650" 
d="M325 710q86 0 144.5 -50t84.5 -129t26 -181q0 -159 -64 -259.5t-191 -100.5t-191 100.5t-64 259.5q0 102 26 181t84.5 129t144.5 50zM325 702q-58 0 -99.5 -29t-63.5 -80.5t-32 -111t-10 -131.5q0 -73 10 -132.5t32 -111t63.5 -80t99.5 -28.5t99.5 28.5t63.5 80t32 111
t10 132.5q0 72 -10 131.5t-32 111t-63.5 80.5t-99.5 29z" />
    <glyph glyph-name="one.lf" horiz-adv-x="370" 
d="M210 710v-672q0 -20 5 -25t25 -5h80v-8h-270v8h80q20 0 25 5t5 25v607q0 14 -5.5 19.5t-23.5 2.5q-32 -5 -81 -5v8q125 0 152 40h8z" />
    <glyph glyph-name="two.lf" horiz-adv-x="550" 
d="M255 710q97 0 156 -51.5t59 -151.5q0 -89 -69.5 -184.5t-238.5 -234.5l-46 -38h246q62 0 86 15t24 69v30h8v-164h-430v8l108 87q109 88 167.5 160.5t76.5 127.5t18 127q0 88 -42 140t-123 52q-40 0 -68 -10.5t-40.5 -28t-17 -32.5t-4.5 -30v-6q0 -25 -25 -25t-25 25
q0 40 54 77.5t126 37.5z" />
    <glyph glyph-name="three.lf" horiz-adv-x="565" 
d="M255 710q96 0 155.5 -42.5t59.5 -120.5t-64.5 -126t-152.5 -59q42 -3 82.5 -15t77.5 -33.5t59.5 -57.5t22.5 -81q0 -93 -68 -139t-172 -46q-79 0 -137 37.5t-58 77.5q0 25 25 25t25 -25v-5q0 -15 5.5 -30t19.5 -32.5t45 -28.5t75 -11q190 0 190 172q0 55 -22.5 94
t-60.5 58t-76 27.5t-80 8.5q-13 -1 -26.5 -3.5t-19.5 -2.5q-13 0 -13 10t13 10q6 0 19.5 -2.5t26.5 -3.5q94 2 154 44.5t60 134.5q0 67 -43 112t-122 45q-41 0 -69 -11t-40 -28.5t-16.5 -32.5t-4.5 -30v-5q0 -25 -25 -25t-25 25q0 40 54 77.5t126 37.5z" />
    <glyph glyph-name="four.lf" horiz-adv-x="570" 
d="M410 188v-150q0 -20 5 -25t25 -5h80v-8h-270v8h80q20 0 25 5t5 25v150h-330v8l372 514h8v-514h110v-8h-110zM360 196v443l-320 -443h320z" />
    <glyph glyph-name="five.lf" horiz-adv-x="560" 
d="M266 410q103 0 163.5 -54.5t60.5 -155.5q0 -103 -66.5 -156.5t-168.5 -53.5q-79 0 -137 37.5t-58 77.5q0 25 25 25t25 -25v-5q0 -15 5.5 -30t19.5 -32.5t45 -28.5t75 -11q97 0 141 55t44 147q0 103 -47 152.5t-127 49.5q-81 0 -154 -57h-8l26 355q40 0 143 -17.5
t140 -17.5q49 0 49 55h8q0 -90 -118 -90q-36 0 -111.5 10t-105.5 10l-22 -292q74 52 153 52z" />
    <glyph glyph-name="six.lf" horiz-adv-x="590" 
d="M297 425q103 0 163 -54.5t60 -161.5q0 -98 -63 -158.5t-157 -60.5q-80 0 -133.5 45.5t-75 113t-21.5 151.5q0 80 14 150t42.5 130t80 95t119.5 35q72 0 126 -37.5t54 -77.5q0 -25 -25 -25t-25 25v5q0 15 -4.5 30t-16.5 32.5t-40 28.5t-69 11q-43 0 -77.5 -18t-56 -49.5
t-36.5 -66.5t-22 -77.5t-10 -73t-4 -61.5q26 21 42.5 32t54.5 24t80 13zM300 -2q71 0 120.5 57.5t49.5 151.5q0 210 -173 210q-41 0 -78.5 -13.5t-55.5 -25.5t-43 -33v-5q0 -160 43.5 -251t136.5 -91z" />
    <glyph glyph-name="seven.lf" horiz-adv-x="550" 
d="M501 710h9q-27 -61 -79 -146.5l-88 -147t-65 -164t-29 -220.5q0 -42 -25 -42t-25 39q0 81 38 184.5t83 180.5l96 160.5t64 111.5q-43 -46 -112 -46q-49 0 -128 20t-108 20q-43 0 -63.5 -23t-20.5 -51v-33h-8v147h8v-85q6 46 44 70.5t93 24.5q41 0 128 -27.5t125 -27.5
q22 0 36 12t27 43z" />
    <glyph glyph-name="eight.lf" horiz-adv-x="590" 
d="M326 372q50 -26 73 -39t57.5 -39.5t49 -56.5t14.5 -67q0 -79 -58.5 -129.5t-166.5 -50.5q-110 0 -167.5 47t-57.5 123q0 64 53.5 115t125.5 84q-74 39 -114 81t-40 107q0 68 51.5 115.5t148.5 47.5q95 0 147.5 -45t52.5 -115q0 -58 -42 -101t-127 -77zM145 563
q0 -34 13 -62t41 -51t53 -38t66 -36q68 29 97.5 70t29.5 104q0 76 -46.5 114t-103.5 38q-32 0 -64.5 -12.5t-59 -45.5t-26.5 -81zM295 -2q93 0 134 46t41 111q0 19 -5.5 37t-13 31t-23 28t-26.5 24t-34 22l-34.5 19.5t-38.5 20t-38 18.5q-33 -19 -50.5 -31t-41 -35.5
t-34.5 -55t-11 -73.5q0 -71 41 -116.5t134 -45.5z" />
    <glyph glyph-name="nine.lf" horiz-adv-x="590" 
d="M290 710q80 0 133.5 -45.5t75 -113t21.5 -151.5q0 -80 -14 -150t-42.5 -130t-80 -95t-119.5 -35q-72 0 -126 37.5t-54 77.5q0 25 25 25t25 -25v-5q0 -15 4.5 -30t17 -32.5t40.5 -28.5t68 -11q52 0 91 27t60 65t34 90t16.5 89t4.5 76q-25 -20 -42 -32t-55 -25t-80 -13
q-103 0 -163 54.5t-60 161.5q0 98 63 158.5t157 60.5zM293 283q41 0 78.5 13.5t55.5 25.5t43 33v5q0 160 -43.5 251t-136.5 91q-71 0 -120.5 -57.5t-49.5 -151.5q0 -210 173 -210z" />
    <glyph glyph-name="zero.osf" horiz-adv-x="650" 
d="M325 510q85 0 144.5 -39.5t85 -96.5t25.5 -124q0 -68 -25.5 -125t-85 -96t-144.5 -39t-144.5 39t-85 96t-25.5 125q0 67 25.5 124t85 96.5t144.5 39.5zM325 502q-57 0 -99.5 -23.5t-64 -62t-31.5 -80t-10 -86.5q0 -36 5.5 -69t20.5 -67t37.5 -59t59 -41t82.5 -16t82.5 16
t59 41t37.5 59t20.5 67t5.5 69q0 45 -10 86.5t-31.5 80t-64 62t-99.5 23.5z" />
    <glyph glyph-name="one.osf" horiz-adv-x="370" 
d="M210 510v-472q0 -20 5 -25t25 -5h80v-8h-270v8h80q20 0 25 5t5 25v407q0 14 -5.5 19.5t-23.5 2.5q-33 -5 -81 -5v8q125 0 152 40h8z" />
    <glyph glyph-name="two.osf" horiz-adv-x="550" 
d="M255 510q98 0 156.5 -36.5t58.5 -113.5q0 -28 -13 -55.5t-29.5 -47.5t-53 -47.5t-61 -43.5l-77 -48.5l-79.5 -49.5l-28 -18h233q62 0 86 15t24 69v30h8v-164h-430v8l103 67l56 36l53.5 34.5t43.5 30.5t40.5 32.5t30 32t25 37t12.5 39t6 46.5q0 65 -42 102t-123 37
q-41 0 -69 -11t-40 -29t-16.5 -32.5t-4.5 -30.5v-4q0 -25 -25 -25t-25 25q0 40 54 77.5t126 37.5z" />
    <glyph glyph-name="three.osf" horiz-adv-x="565" 
d="M255 510q96 0 155.5 -42.5t59.5 -120.5t-64.5 -126t-152.5 -59q42 -3 82.5 -15t77.5 -33.5t59.5 -57.5t22.5 -81q0 -93 -68 -139t-172 -46q-79 0 -137 37.5t-58 77.5q0 25 25 25t25 -25v-5q0 -15 5.5 -30.5t19.5 -32.5t45 -28t75 -11q190 0 190 172q0 55 -22.5 94
t-60.5 58t-76 27.5t-80 8.5q-13 -1 -26.5 -3.5t-19.5 -2.5q-13 0 -13 10t13 10q6 0 19.5 -2.5t26.5 -3.5q94 2 154 44.5t60 134.5q0 67 -43 112t-122 45q-41 0 -69 -11t-40 -28.5t-16.5 -32.5t-4.5 -30v-5q0 -25 -25 -25t-25 25q0 40 54 77.5t126 37.5z" />
    <glyph glyph-name="four.osf" horiz-adv-x="570" 
d="M410 0v-162q0 -20 5 -25t25 -5h80v-8h-270v8h80q20 0 25 5t5 25v162h-330v8l372 502h8v-502h110v-8h-110zM360 8v432l-320 -432h320z" />
    <glyph glyph-name="five.osf" horiz-adv-x="560" 
d="M266 210q103 0 163.5 -54.5t60.5 -155.5q0 -103 -66.5 -156.5t-168.5 -53.5q-79 0 -137 37.5t-58 77.5q0 25 25 25t25 -25v-5q0 -15 5.5 -30.5t19.5 -32.5t45 -28t75 -11q97 0 141 55t44 147q0 103 -47 152.5t-127 49.5q-81 0 -154 -57h-8l26 355q40 0 143 -17.5
t140 -17.5q49 0 49 55h8q0 -90 -118 -90q-36 0 -111.5 10t-105.5 10l-22 -292q74 52 153 52z" />
    <glyph glyph-name="six.osf" horiz-adv-x="590" 
d="M297 425q103 0 163 -54.5t60 -161.5q0 -98 -63 -158.5t-157 -60.5q-80 0 -133.5 45.5t-75 113t-21.5 151.5q0 80 14 150t42.5 130t80 95t119.5 35q72 0 126 -37.5t54 -77.5q0 -25 -25 -25t-25 25v5q0 15 -4.5 30t-16.5 32.5t-40 28.5t-69 11q-43 0 -77.5 -18t-56 -49.5
t-36.5 -66.5t-22 -77.5t-10 -73t-4 -61.5q26 21 42.5 32t54.5 24t80 13zM300 -2q71 0 120.5 57.5t49.5 151.5q0 210 -173 210q-41 0 -78.5 -13.5t-55.5 -25.5t-43 -33v-5q0 -160 43.5 -251t136.5 -91z" />
    <glyph glyph-name="seven.osf" horiz-adv-x="550" 
d="M501 510h9q-27 -61 -79 -146.5l-88 -147t-65 -164t-29 -220.5q0 -42 -25 -42t-25 39q0 81 38 184.5t83 180.5l96 160.5t64 111.5q-43 -46 -112 -46q-49 0 -128 20t-108 20q-43 0 -63.5 -23t-20.5 -51v-33h-8v147h8v-85q6 46 44 70.5t93 24.5q41 0 128 -27.5t125 -27.5
q22 0 36 12t27 43z" />
    <glyph glyph-name="eight.osf" horiz-adv-x="590" 
d="M326 372q50 -26 73 -39t57.5 -39.5t49 -56.5t14.5 -67q0 -79 -58.5 -129.5t-166.5 -50.5q-110 0 -167.5 47t-57.5 123q0 64 53.5 115t125.5 84q-74 39 -114 81t-40 107q0 68 51.5 115.5t148.5 47.5q95 0 147.5 -45t52.5 -115q0 -58 -42 -101t-127 -77zM145 563
q0 -34 13 -62t41 -51t53 -38t66 -36q68 29 97.5 70t29.5 104q0 76 -46.5 114t-103.5 38q-32 0 -64.5 -12.5t-59 -45.5t-26.5 -81zM295 -2q93 0 134 46t41 111q0 19 -5.5 37t-13 31t-23 28t-26.5 24t-34 22l-34.5 19.5t-38.5 20t-38 18.5q-33 -19 -50.5 -31t-41 -35.5
t-34.5 -55t-11 -73.5q0 -71 41 -116.5t134 -45.5z" />
    <glyph glyph-name="nine.osf" horiz-adv-x="590" 
d="M290 510q80 0 133.5 -45.5t75 -113t21.5 -151.5q0 -80 -14 -150t-42.5 -130t-80 -95t-119.5 -35q-72 0 -126 37.5t-54 77.5q0 25 25 25t25 -25v-5q0 -15 4.5 -30t17 -32.5t40.5 -28.5t68 -11q52 0 91 27t60 65t34 90t16.5 89t4.5 76q-25 -20 -42 -32t-55 -25t-80 -13
q-103 0 -163 54.5t-60 161.5q0 98 63 158.5t157 60.5zM293 83q41 0 78.5 13.5t55.5 25.5t43 33v5q0 160 -43.5 251t-136.5 91q-71 0 -120.5 -57.5t-49.5 -151.5q0 -210 173 -210z" />
    <glyph glyph-name="zero.subs" horiz-adv-x="334" 
d="M167 255q65 0 98.5 -50t33.5 -130t-33.5 -130t-98.5 -50t-98.5 50t-33.5 130t33.5 130t98.5 50zM167 251q-91 0 -91 -176t91 -176t91 176t-91 176z" />
    <glyph glyph-name="one.subs" horiz-adv-x="195" 
d="M118 255v-336q0 -10 2.5 -12.5t12.5 -2.5h37v-4h-145v4h38q10 0 12.5 2.5t2.5 12.5v297q0 8 -3 10.5t-12 1.5q-14 -2 -38 -2v4q73 0 89 25h4z" />
    <glyph glyph-name="two.subs" horiz-adv-x="285" 
d="M133 255q52 0 82.5 -25t30.5 -74q0 -31 -22.5 -65.5t-47 -57.5t-88.5 -78l-19 -16h115q36 0 49 7t13 32v13h4v-91h-225v4l61 55q69 59 94.5 103.5t25.5 95.5q0 44 -19 68.5t-54 24.5q-26 0 -40 -10.5t-16 -20t-2 -24.5q0 -18 -19 -18q-18 0 -18 18q0 21 29 40t66 19z" />
    <glyph glyph-name="three.subs" horiz-adv-x="286" 
d="M130 255q52 0 83 -21t31 -60t-35 -62.5t-78 -29.5q48 -4 86.5 -26.5t38.5 -66.5q0 -47 -35.5 -70.5t-90.5 -23.5q-40 0 -70 19t-30 40q0 18 18 18q19 0 19 -18q0 -55 63 -55q86 0 86 88q0 91 -108 93q-7 -1 -14 -2.5t-11 -1.5q-7 0 -7 6q0 5 7 5q3 0 10.5 -1.5t14.5 -1.5
q99 2 99 89q0 35 -20 56.5t-57 21.5q-20 0 -32 -5t-16.5 -15.5t-5.5 -17t-1 -17.5q0 -18 -19 -18q-18 0 -18 18q0 21 28 40t64 19z" />
    <glyph glyph-name="four.subs" 
d="M213 -6v-75q0 -10 2.5 -12.5t12.5 -2.5h37v-4h-145v4h38q10 0 12.5 2.5t2.5 12.5v75h-158v4l194 257h4v-257h52v-4h-52zM173 -2v203l-153 -203h153z" />
    <glyph glyph-name="five.subs" 
d="M136 105q53 0 86 -26.5t33 -77.5q0 -53 -36 -79.5t-89 -26.5q-40 0 -70 19t-30 40q0 18 18 18q19 0 19 -18q0 -55 63 -55q84 0 84 101t-80 101q-46 0 -77 -31h-4l13 180q25 0 77 -8.5t69 -8.5q29 0 29 26h4q0 -56 -63 -56q-20 0 -58.5 5t-55.5 5l-10 -136q33 28 78 28z
" />
    <glyph glyph-name="six.subs" horiz-adv-x="308" 
d="M157 114q52 0 84 -27t32 -80q0 -50 -33 -81t-84 -31q-61 0 -91 45.5t-30 113.5q0 84 34 142.5t103 58.5q36 0 64 -19t28 -40q0 -18 -19 -18q-18 0 -18 18q0 11 -1 17.5t-5.5 17t-16.5 15.5t-32 5q-93 0 -96 -168q38 31 81 31zM156 -101q33 0 54.5 29t21.5 77
q0 105 -75 105q-42 0 -81 -32v-7q0 -172 80 -172z" />
    <glyph glyph-name="seven.subs" horiz-adv-x="284" 
d="M260 255h4q-13 -30 -38.5 -71.5l-43.5 -71t-32 -80t-14 -109.5q0 -28 -20 -28t-20 26q0 45 28.5 103.5t71 122.5t51.5 81q-28 -32 -65 -32q-25 0 -65.5 11t-54.5 11q-19 0 -28.5 -10t-9.5 -24v-16h-4v82h4v-52q6 57 70 57q25 0 70.5 -16t62.5 -16q19 0 33 32z" />
    <glyph glyph-name="eight.subs" horiz-adv-x="295" 
d="M169 91q25 -13 36 -20t28.5 -20.5t24.5 -28.5t7 -34q0 -43 -31 -68t-87 -25q-59 0 -88 23t-29 60q0 56 90 97q-37 20 -57.5 41.5t-20.5 54.5q0 35 27.5 59.5t79.5 24.5q48 0 75 -22.5t27 -56.5q0 -54 -82 -85zM80 186q0 -32 21.5 -51.5t63.5 -41.5q54 23 54 84
q0 37 -21 55.5t-49 18.5q-25 0 -47 -16.5t-22 -48.5zM147 -101q42 0 61 21.5t19 51.5q0 10 -2.5 18.5t-6 15t-11.5 14l-12.5 12t-16 11.5t-17 10l-19.5 10.5t-18 9.5q-31 -16 -47 -36t-16 -58q0 -37 22 -58.5t64 -21.5z" />
    <glyph glyph-name="nine.subs" horiz-adv-x="308" 
d="M152 255q61 0 91 -45.5t30 -113.5q0 -84 -34 -142.5t-103 -58.5q-36 0 -64 19t-28 40q0 18 19 18q18 0 18 -18q0 -11 1 -17.5t5.5 -17t16.5 -15.5t32 -5q93 0 96 168q-38 -31 -81 -31q-52 0 -84 27t-32 80q0 50 33 81t84 31zM151 40q42 0 81 32v7q0 172 -80 172
q-33 0 -54.5 -29t-21.5 -77q0 -105 75 -105z" />
    <glyph glyph-name="zero.sups" horiz-adv-x="334" 
d="M167 805q65 0 98.5 -50t33.5 -130t-33.5 -130t-98.5 -50t-98.5 50t-33.5 130t33.5 130t98.5 50zM167 801q-91 0 -91 -176t91 -176t91 176t-91 176z" />
    <glyph glyph-name="four.sups" 
d="M213 544v-75q0 -10 2.5 -12.5t12.5 -2.5h37v-4h-145v4h38q10 0 12.5 2.5t2.5 12.5v75h-158v4l194 257h4v-257h52v-4h-52zM173 548v203l-153 -203h153z" />
    <glyph glyph-name="five.sups" 
d="M136 655q53 0 86 -26.5t33 -77.5q0 -53 -36 -79.5t-89 -26.5q-40 0 -70 19t-30 40q0 18 18 18q19 0 19 -18q0 -55 63 -55q84 0 84 101t-80 101q-46 0 -77 -31h-4l13 180q25 0 77 -8.5t69 -8.5q29 0 29 26h4q0 -56 -63 -56q-20 0 -58.5 5t-55.5 5l-10 -136q33 28 78 28z
" />
    <glyph glyph-name="six.sups" horiz-adv-x="308" 
d="M157 664q52 0 84 -27t32 -80q0 -50 -33 -81t-84 -31q-61 0 -91 45.5t-30 113.5q0 84 34 142.5t103 58.5q36 0 64 -19t28 -40q0 -18 -19 -18q-18 0 -18 18q0 11 -1 17.5t-5.5 17t-16.5 15.5t-32 5q-93 0 -96 -168q38 31 81 31zM156 449q33 0 54.5 29t21.5 77
q0 105 -75 105q-42 0 -81 -32v-7q0 -172 80 -172z" />
    <glyph glyph-name="seven.sups" horiz-adv-x="284" 
d="M260 805h4q-13 -30 -38.5 -71.5l-43.5 -71t-32 -80t-14 -109.5q0 -28 -20 -28t-20 26q0 45 28.5 103.5t71 122.5t51.5 81q-28 -32 -65 -32q-25 0 -65.5 11t-54.5 11q-19 0 -28.5 -10t-9.5 -24v-16h-4v82h4v-52q6 57 70 57q25 0 70.5 -16t62.5 -16q19 0 33 32z" />
    <glyph glyph-name="eight.sups" horiz-adv-x="295" 
d="M169 641q25 -13 36 -20t28.5 -20.5t24.5 -28.5t7 -34q0 -43 -31 -68t-87 -25q-59 0 -88 23t-29 60q0 56 90 97q-37 20 -57.5 41.5t-20.5 54.5q0 35 27.5 59.5t79.5 24.5q48 0 75 -22.5t27 -56.5q0 -54 -82 -85zM80 736q0 -32 21.5 -51.5t63.5 -41.5q54 23 54 84
q0 37 -21 55.5t-49 18.5q-25 0 -47 -16.5t-22 -48.5zM147 449q42 0 61 21.5t19 51.5q0 10 -2.5 18.5t-6 15t-11.5 14l-12.5 12t-16 11.5t-17 10l-19.5 10.5t-18 9.5q-31 -16 -47 -36t-16 -58q0 -37 22 -58.5t64 -21.5z" />
    <glyph glyph-name="nine.sups" horiz-adv-x="308" 
d="M152 805q61 0 91 -45.5t30 -113.5q0 -84 -34 -142.5t-103 -58.5q-36 0 -64 19t-28 40q0 18 19 18q18 0 18 -18q0 -15 1.5 -24t14.5 -20t39 -11q93 0 96 168q-38 -31 -81 -31q-52 0 -84 27t-32 80q0 50 33 81t84 31zM151 590q42 0 81 32v7q0 172 -80 172q-33 0 -54.5 -29
t-21.5 -77q0 -105 75 -105z" />
    <glyph glyph-name="zero.tf" horiz-adv-x="600" 
d="M300 710q65 0 112.5 -28t74.5 -78.5t40 -113.5t13 -140q0 -78 -13 -141t-40 -113t-74.5 -78t-112.5 -28t-112.5 28t-74.5 78t-40 113t-13 141q0 77 13 140t40 113.5t74.5 78.5t112.5 28zM300 702q-47 0 -81.5 -20t-55 -51.5t-33 -79.5t-16.5 -95t-4 -106t4 -106.5
t16.5 -95t33 -79t55 -51.5t81.5 -20t81.5 20t55 51.5t33 79t16.5 95t4 106.5t-4 106t-16.5 95t-33 79.5t-55 51.5t-81.5 20z" />
    <glyph glyph-name="one.tf" horiz-adv-x="600" 
d="M325 710v-672q0 -20 5.5 -25t24.5 -5h130v-8h-370v8h130q19 0 24.5 5t5.5 25v607q0 14 -5.5 19.5t-23.5 2.5q-33 -5 -131 -5v8q101 0 144 8.5t58 31.5h8z" />
    <glyph glyph-name="two.tf" horiz-adv-x="600" 
d="M290 710q97 0 156 -51.5t59 -151.5q0 -89 -69.5 -184.5t-238.5 -234.5l-46 -38h246q62 0 86 15t24 69v30h8v-164h-430v8l108 87q109 88 167.5 160.5t76.5 127.5t18 127q0 88 -42 140t-123 52q-40 0 -68 -10.5t-40.5 -28t-17 -32.5t-4.5 -30v-6q0 -25 -25 -25t-25 25
q0 40 54 77.5t126 37.5z" />
    <glyph glyph-name="three.tf" horiz-adv-x="600" 
d="M277 710q96 0 155.5 -42.5t59.5 -120.5t-64.5 -126t-152.5 -59q42 -3 82.5 -15t77.5 -33.5t59.5 -57.5t22.5 -81q0 -93 -68 -139t-172 -46q-79 0 -137 37.5t-58 77.5q0 25 25 25t25 -25v-5q0 -15 5.5 -30t19.5 -32.5t45 -28.5t75 -11q190 0 190 172q0 55 -22.5 94
t-60.5 58t-76 27.5t-80 8.5q-13 -1 -26.5 -3.5t-19.5 -2.5q-13 0 -13 10t13 10q6 0 19.5 -2.5t26.5 -3.5q94 2 154 44.5t60 134.5q0 67 -43 112t-122 45q-41 0 -69 -11t-40 -28.5t-16.5 -32.5t-4.5 -30v-5q0 -25 -25 -25t-25 25q0 40 54 77.5t126 37.5z" />
    <glyph glyph-name="four.tf" horiz-adv-x="600" 
d="M435 188v-150q0 -20 5.5 -25t24.5 -5h80v-8h-270v8h80q19 0 24.5 5t5.5 25v150h-330v8l372 514h8v-514h110v-8h-110zM385 196v443l-320 -443h320z" />
    <glyph glyph-name="five.tf" horiz-adv-x="600" 
d="M291 410q103 0 163.5 -54.5t60.5 -155.5q0 -103 -66.5 -156.5t-168.5 -53.5q-79 0 -137 37.5t-58 77.5q0 25 25 25t25 -25v-5q0 -15 5.5 -30t19.5 -32.5t45 -28.5t75 -11q97 0 141 55t44 147q0 103 -47 152.5t-127 49.5q-81 0 -154 -57h-8l26 355q41 0 143 -17.5
t140 -17.5q49 0 49 55h8q0 -90 -118 -90q-36 0 -111.5 10t-105.5 10l-22 -292q74 52 153 52z" />
    <glyph glyph-name="six.tf" horiz-adv-x="600" 
d="M302 425q103 0 163 -54.5t60 -161.5q0 -98 -63 -158.5t-157 -60.5q-80 0 -133.5 45.5t-75 113t-21.5 151.5q0 80 14 150t42.5 130t80 95t119.5 35q72 0 126 -37.5t54 -77.5q0 -25 -25 -25t-25 25v5q0 15 -4.5 30t-16.5 32.5t-40 28.5t-69 11q-43 0 -77.5 -18t-56 -49.5
t-36.5 -66.5t-22 -77.5t-10 -73t-4 -61.5q26 21 42.5 32t54.5 24t80 13zM305 -2q71 0 120.5 57.5t49.5 151.5q0 210 -173 210q-41 0 -78.5 -13.5t-55.5 -25.5t-43 -33v-5q0 -160 43.5 -251t136.5 -91z" />
    <glyph glyph-name="seven.tf" horiz-adv-x="600" 
d="M526 710h9q-27 -61 -79 -146.5l-88 -147t-65 -164t-29 -220.5q0 -42 -25 -42t-25 39q0 81 38 184.5t83 180.5l96 160.5t64 111.5q-43 -46 -112 -46q-49 0 -128 20t-108 20q-43 0 -63.5 -23t-20.5 -51v-33h-8v147h8v-85q6 46 44 70.5t93 24.5q41 0 128.5 -27.5
t124.5 -27.5q22 0 36 12t27 43z" />
    <glyph glyph-name="eight.tf" horiz-adv-x="600" 
d="M331 372q50 -26 73 -39t57.5 -39.5t49 -56.5t14.5 -67q0 -79 -58.5 -129.5t-166.5 -50.5q-110 0 -167.5 47t-57.5 123q0 64 53.5 115t125.5 84q-74 39 -114 81t-40 107q0 68 51.5 115.5t148.5 47.5q95 0 147.5 -45t52.5 -115q0 -58 -42 -101t-127 -77zM150 563
q0 -34 13 -62t41 -51t53 -38t66 -36q68 29 97.5 70t29.5 104q0 76 -46.5 114t-103.5 38q-32 0 -64.5 -12.5t-59 -45.5t-26.5 -81zM300 -2q93 0 134 46t41 111q0 19 -5.5 37t-13 31t-23 28t-26.5 24t-34 22l-34.5 19.5t-38.5 20t-38 18.5q-33 -19 -50.5 -31t-41 -35.5
t-34.5 -55t-11 -73.5q0 -71 41 -116.5t134 -45.5z" />
    <glyph glyph-name="nine.tf" horiz-adv-x="600" 
d="M295 710q80 0 133.5 -45.5t75 -113t21.5 -151.5q0 -80 -14 -150t-42.5 -130t-80 -95t-119.5 -35q-72 0 -126 37.5t-54 77.5q0 25 25 25t25 -25v-5q0 -15 4.5 -30t17 -32.5t40.5 -28.5t68 -11q52 0 91 27t60 65t34 90t16.5 89t4.5 76q-25 -20 -42 -32t-55 -25t-80 -13
q-103 0 -163 54.5t-60 161.5q0 98 63 158.5t157 60.5zM298 283q41 0 78.5 13.5t55.5 25.5t43 33v5q0 160 -43.5 251t-136.5 91q-71 0 -120.5 -57.5t-49.5 -151.5q0 -210 173 -210z" />
    <glyph glyph-name="zero.tosf" horiz-adv-x="600" 
d="M300 510q123 0 181.5 -76t58.5 -184q0 -51 -13 -95.5t-40 -82.5t-75 -60t-112 -22t-112 22t-75 60t-40 82.5t-13 95.5q0 108 58.5 184t181.5 76zM300 502q-190 0 -190 -252t190 -252t190 252t-190 252z" />
    <glyph glyph-name="one.tosf" horiz-adv-x="600" 
d="M325 510v-472q0 -20 5.5 -25t24.5 -5h130v-8h-370v8h130q19 0 24.5 5t5.5 25v407q0 14 -5.5 19.5t-23.5 2.5q-32 -5 -131 -5v8q101 0 144 8.5t58 31.5h8z" />
    <glyph glyph-name="two.tosf" horiz-adv-x="600" 
d="M290 510q98 0 156.5 -36.5t58.5 -113.5q0 -28 -13 -55.5t-29.5 -47.5t-53 -47.5t-61 -43.5l-77 -48.5l-79.5 -49.5l-28 -18h233q62 0 86 15t24 69v30h8v-164h-430v8l103 67l56 36l53.5 34.5t43.5 30.5t40.5 32.5t30 32t25 37t12.5 39t6 46.5q0 65 -42 102t-123 37
q-41 0 -69 -11t-40 -28.5t-16.5 -32t-4.5 -30.5v-5q0 -25 -25 -25t-25 25q0 40 54 77.5t126 37.5z" />
    <glyph glyph-name="three.tosf" horiz-adv-x="600" 
d="M277 510q96 0 155.5 -42.5t59.5 -120.5t-64.5 -126t-152.5 -59q42 -3 82.5 -15t77.5 -33.5t59.5 -57.5t22.5 -81q0 -93 -68 -139t-172 -46q-79 0 -137 37.5t-58 77.5q0 25 25 25t25 -25v-5q0 -15 5.5 -30.5t19.5 -32.5t45 -28t75 -11q190 0 190 172q0 55 -22.5 94
t-60.5 58t-76 27.5t-80 8.5q-13 -1 -26.5 -3.5t-19.5 -2.5q-13 0 -13 10t13 10q6 0 19.5 -2.5t26.5 -3.5q94 2 154 44.5t60 134.5q0 67 -43 112t-122 45q-41 0 -69 -11t-40 -28.5t-16.5 -32.5t-4.5 -30v-5q0 -25 -25 -25t-25 25q0 40 54 77.5t126 37.5z" />
    <glyph glyph-name="four.tosf" horiz-adv-x="600" 
d="M436 0v-162q0 -20 5 -25t25 -5h80v-8h-270v8h80q20 0 25 5t5 25v162h-330v8l372 502h8v-502h110v-8h-110zM386 8v432l-320 -432h320z" />
    <glyph glyph-name="five.tosf" horiz-adv-x="600" 
d="M291 210q103 0 163.5 -54.5t60.5 -155.5q0 -103 -66.5 -156.5t-168.5 -53.5q-79 0 -137 37.5t-58 77.5q0 25 25 25t25 -25v-5q0 -15 5.5 -30.5t19.5 -32.5t45 -28t75 -11q97 0 141 55t44 147q0 103 -47 152.5t-127 49.5q-81 0 -154 -57h-8l26 355q41 0 143 -17.5
t140 -17.5q49 0 49 55h8q0 -90 -118 -90q-36 0 -111.5 10t-105.5 10l-22 -292q74 52 153 52z" />
    <glyph glyph-name="six.tosf" horiz-adv-x="600" 
d="M302 425q103 0 163 -54.5t60 -161.5q0 -98 -63 -158.5t-157 -60.5q-80 0 -133.5 45.5t-75 113t-21.5 151.5q0 80 14 150t42.5 130t80 95t119.5 35q72 0 126 -37.5t54 -77.5q0 -25 -25 -25t-25 25v5q0 15 -4.5 30t-16.5 32.5t-40 28.5t-69 11q-43 0 -77.5 -18t-56 -49.5
t-36.5 -66.5t-22 -77.5t-10 -73t-4 -61.5q26 21 42.5 32t54.5 24t80 13zM305 -2q71 0 120.5 57.5t49.5 151.5q0 210 -173 210q-41 0 -78.5 -13.5t-55.5 -25.5t-43 -33v-5q0 -160 43.5 -251t136.5 -91z" />
    <glyph glyph-name="seven.tosf" horiz-adv-x="600" 
d="M526 510h9q-27 -61 -79 -146.5l-88 -147t-65 -164t-29 -220.5q0 -42 -25 -42t-25 39q0 81 38 184.5t83 180.5l96 160.5t64 111.5q-43 -46 -112 -46q-49 0 -128 20t-108 20q-43 0 -63.5 -23t-20.5 -51v-33h-8v147h8v-85q6 46 44 70.5t93 24.5q41 0 128.5 -27.5
t124.5 -27.5q22 0 36 12t27 43z" />
    <glyph glyph-name="eight.tosf" horiz-adv-x="600" 
d="M331 372q50 -26 73 -39t57.5 -39.5t49 -56.5t14.5 -67q0 -79 -58.5 -129.5t-166.5 -50.5q-110 0 -167.5 47t-57.5 123q0 64 53.5 115t125.5 84q-74 39 -114 81t-40 107q0 68 51.5 115.5t148.5 47.5q95 0 147.5 -45t52.5 -115q0 -58 -42 -101t-127 -77zM150 563
q0 -34 13 -62t41 -51t53 -38t66 -36q68 29 97.5 70t29.5 104q0 76 -46.5 114t-103.5 38q-32 0 -64.5 -12.5t-59 -45.5t-26.5 -81zM300 -2q93 0 134 46t41 111q0 19 -5.5 37t-13 31t-23 28t-26.5 24t-34 22l-34.5 19.5t-38.5 20t-38 18.5q-33 -19 -50.5 -31t-41 -35.5
t-34.5 -55t-11 -73.5q0 -71 41 -116.5t134 -45.5z" />
    <glyph glyph-name="nine.tosf" horiz-adv-x="600" 
d="M295 510q80 0 133.5 -45.5t75 -113t21.5 -151.5q0 -80 -14 -150t-42.5 -130t-80 -95t-119.5 -35q-72 0 -126 37.5t-54 77.5q0 25 25 25t25 -25v-5q0 -15 4.5 -30t17 -32.5t40.5 -28.5t68 -11q52 0 91 27t60 65t34 90t16.5 89t4.5 76q-25 -20 -42 -32t-55 -25t-80 -13
q-103 0 -163 54.5t-60 161.5q0 98 63 158.5t157 60.5zM298 83q41 0 78.5 13.5t55.5 25.5t43 33v5q0 160 -43.5 251t-136.5 91q-71 0 -120.5 -57.5t-49.5 -151.5q0 -210 173 -210z" />
    <glyph glyph-name="zero.dnom" horiz-adv-x="334" 
d="M167 355q65 0 98.5 -50t33.5 -130t-33.5 -130t-98.5 -50t-98.5 50t-33.5 130t33.5 130t98.5 50zM167 351q-91 0 -91 -176t91 -176t91 176t-91 176z" />
    <glyph glyph-name="one.dnom" horiz-adv-x="195" 
d="M118 355v-336q0 -10 2.5 -12.5t12.5 -2.5h37v-4h-145v4h38q10 0 12.5 2.5t2.5 12.5v297q0 8 -3 10.5t-12 1.5q-14 -2 -38 -2v4q73 0 89 25h4z" />
    <glyph glyph-name="two.dnom" horiz-adv-x="285" 
d="M133 355q52 0 82.5 -25t30.5 -74q0 -31 -22.5 -65.5t-47 -57.5t-88.5 -78l-19 -16h115q36 0 49 7t13 32v13h4v-91h-225v4l61 55q69 59 94.5 103.5t25.5 95.5q0 44 -19 68.5t-54 24.5q-26 0 -40 -10.5t-16 -20t-2 -24.5q0 -18 -19 -18q-18 0 -18 18q0 21 29 40t66 19z" />
    <glyph glyph-name="three.dnom" horiz-adv-x="286" 
d="M130 355q52 0 83 -21t31 -60t-35 -62.5t-78 -29.5q48 -4 86.5 -26.5t38.5 -66.5q0 -47 -35.5 -70.5t-90.5 -23.5q-40 0 -70 19t-30 40q0 18 18 18q19 0 19 -18q0 -55 63 -55q86 0 86 88q0 91 -108 93q-7 -1 -14 -2.5t-11 -1.5q-7 0 -7 6q0 5 7 5q3 0 10.5 -1.5t14.5 -1.5
q99 2 99 89q0 35 -20 56.5t-57 21.5q-20 0 -32 -5t-16.5 -15.5t-5.5 -17t-1 -17.5q0 -18 -19 -18q-18 0 -18 18q0 21 28 40t64 19z" />
    <glyph glyph-name="four.dnom" 
d="M213 94v-75q0 -10 2.5 -12.5t12.5 -2.5h37v-4h-145v4h38q10 0 12.5 2.5t2.5 12.5v75h-158v4l194 257h4v-257h52v-4h-52zM173 98v203l-153 -203h153z" />
    <glyph glyph-name="five.dnom" 
d="M136 205q53 0 86 -26.5t33 -77.5q0 -53 -36 -79.5t-89 -26.5q-40 0 -70 19t-30 40q0 18 18 18q19 0 19 -18q0 -55 63 -55q84 0 84 101t-80 101q-46 0 -77 -31h-4l13 180q25 0 77 -8.5t69 -8.5q29 0 29 26h4q0 -56 -63 -56q-20 0 -58.5 5t-55.5 5l-10 -136q33 28 78 28z
" />
    <glyph glyph-name="six.dnom" horiz-adv-x="308" 
d="M157 214q52 0 84 -27t32 -80q0 -50 -33 -81t-84 -31q-61 0 -91 45.5t-30 113.5q0 84 34 142.5t103 58.5q36 0 64 -19t28 -40q0 -18 -19 -18q-18 0 -18 18q0 11 -1 17.5t-5.5 17t-16.5 15.5t-32 5q-93 0 -96 -168q38 31 81 31zM156 -1q33 0 54.5 29t21.5 77q0 105 -75 105
q-42 0 -81 -32v-7q0 -172 80 -172z" />
    <glyph glyph-name="seven.dnom" horiz-adv-x="284" 
d="M260 355h4q-13 -30 -38.5 -71.5l-43.5 -71t-32 -80t-14 -109.5q0 -28 -20 -28t-20 26q0 45 28.5 103.5t71 122.5t51.5 81q-28 -32 -65 -32q-25 0 -65.5 11t-54.5 11q-19 0 -28.5 -10t-9.5 -24v-16h-4v82h4v-52q6 57 70 57q25 0 70.5 -16t62.5 -16q19 0 33 32z" />
    <glyph glyph-name="eight.dnom" horiz-adv-x="295" 
d="M169 191q25 -13 36 -20t28.5 -20.5t24.5 -28.5t7 -34q0 -43 -31 -68t-87 -25q-59 0 -88 23t-29 60q0 56 90 97q-37 20 -57.5 41.5t-20.5 54.5q0 35 27.5 59.5t79.5 24.5q48 0 75 -22.5t27 -56.5q0 -54 -82 -85zM80 286q0 -32 21.5 -51.5t63.5 -41.5q54 23 54 84
q0 37 -21 55.5t-49 18.5q-25 0 -47 -16.5t-22 -48.5zM147 -1q42 0 61 21.5t19 51.5q0 10 -2.5 18.5t-6 15t-11.5 14l-12.5 12t-16 11.5t-17 10l-19.5 10.5t-18 9.5q-31 -16 -47 -36t-16 -58q0 -37 22 -58.5t64 -21.5z" />
    <glyph glyph-name="nine.dnom" horiz-adv-x="308" 
d="M152 355q61 0 91 -45.5t30 -113.5q0 -84 -34 -142.5t-103 -58.5q-36 0 -64 19t-28 40q0 18 19 18q18 0 18 -18q0 -15 1.5 -24t14.5 -20t39 -11q93 0 96 168q-38 -31 -81 -31q-52 0 -84 27t-32 80q0 50 33 81t84 31zM151 140q42 0 81 32v7q0 172 -80 172q-33 0 -54.5 -29
t-21.5 -77q0 -105 75 -105z" />
    <glyph glyph-name="zero.numr" horiz-adv-x="334" 
d="M167 705q65 0 98.5 -50t33.5 -130t-33.5 -130t-98.5 -50t-98.5 50t-33.5 130t33.5 130t98.5 50zM167 701q-91 0 -91 -176t91 -176t91 176t-91 176z" />
    <glyph glyph-name="one.numr" horiz-adv-x="195" 
d="M118 705v-336q0 -10 2.5 -12.5t12.5 -2.5h37v-4h-145v4h38q10 0 12.5 2.5t2.5 12.5v297q0 8 -3 10.5t-12 1.5q-14 -2 -38 -2v4q73 0 89 25h4z" />
    <glyph glyph-name="two.numr" horiz-adv-x="285" 
d="M133 705q52 0 82.5 -25t30.5 -74q0 -31 -22.5 -65.5t-47 -57.5t-88.5 -78l-19 -16h115q36 0 49 7t13 32v13h4v-91h-225v4l61 55q69 59 94.5 103.5t25.5 95.5q0 44 -19 68.5t-54 24.5q-26 0 -40 -10.5t-16 -20t-2 -24.5q0 -18 -19 -18q-18 0 -18 18q0 21 29 40t66 19z" />
    <glyph glyph-name="three.numr" horiz-adv-x="286" 
d="M130 705q52 0 83 -21t31 -60t-35 -62.5t-78 -29.5q48 -4 86.5 -26.5t38.5 -66.5q0 -47 -35.5 -70.5t-90.5 -23.5q-40 0 -70 19t-30 40q0 18 18 18q19 0 19 -18q0 -55 63 -55q86 0 86 88q0 91 -108 93q-7 -1 -14 -2.5t-11 -1.5q-7 0 -7 6q0 5 7 5q3 0 10.5 -1.5t14.5 -1.5
q99 2 99 89q0 35 -20 56.5t-57 21.5q-20 0 -32 -5t-16.5 -15.5t-5.5 -17t-1 -17.5q0 -18 -19 -18q-18 0 -18 18q0 21 28 40t64 19z" />
    <glyph glyph-name="four.numr" 
d="M213 444v-75q0 -10 2.5 -12.5t12.5 -2.5h37v-4h-145v4h38q10 0 12.5 2.5t2.5 12.5v75h-158v4l194 257h4v-257h52v-4h-52zM173 448v203l-153 -203h153z" />
    <glyph glyph-name="five.numr" 
d="M136 555q53 0 86 -26.5t33 -77.5q0 -53 -36 -79.5t-89 -26.5q-40 0 -70 19t-30 40q0 18 18 18q19 0 19 -18q0 -55 63 -55q84 0 84 101t-80 101q-46 0 -77 -31h-4l13 180q25 0 77 -8.5t69 -8.5q29 0 29 26h4q0 -56 -63 -56q-20 0 -58.5 5t-55.5 5l-10 -136q33 28 78 28z
" />
    <glyph glyph-name="six.numr" horiz-adv-x="308" 
d="M157 564q52 0 84 -27t32 -80q0 -50 -33 -81t-84 -31q-61 0 -91 45.5t-30 113.5q0 84 34 142.5t103 58.5q36 0 64 -19t28 -40q0 -18 -19 -18q-18 0 -18 18q0 11 -1 17.5t-5.5 17t-16.5 15.5t-32 5q-93 0 -96 -168q38 31 81 31zM156 349q33 0 54.5 29t21.5 77
q0 105 -75 105q-42 0 -81 -32v-7q0 -172 80 -172z" />
    <glyph glyph-name="seven.numr" horiz-adv-x="284" 
d="M260 705h4q-13 -30 -38.5 -71.5l-43.5 -71t-32 -80t-14 -109.5q0 -28 -20 -28t-20 26q0 45 28.5 103.5t71 122.5t51.5 81q-28 -32 -65 -32q-25 0 -65.5 11t-54.5 11q-19 0 -28.5 -10t-9.5 -24v-16h-4v82h4v-52q6 57 70 57q25 0 70.5 -16t62.5 -16q19 0 33 32z" />
    <glyph glyph-name="eight.numr" horiz-adv-x="295" 
d="M169 541q25 -13 36 -20t28.5 -20.5t24.5 -28.5t7 -34q0 -43 -31 -68t-87 -25q-59 0 -88 23t-29 60q0 56 90 97q-37 20 -57.5 41.5t-20.5 54.5q0 35 27.5 59.5t79.5 24.5q48 0 75 -22.5t27 -56.5q0 -54 -82 -85zM80 636q0 -32 21.5 -51.5t63.5 -41.5q54 23 54 84
q0 37 -21 55.5t-49 18.5q-25 0 -47 -16.5t-22 -48.5zM147 349q42 0 61 21.5t19 51.5q0 10 -2.5 18.5t-6 15t-11.5 14l-12.5 12t-16 11.5t-17 10l-19.5 10.5t-18 9.5q-31 -16 -47 -36t-16 -58q0 -37 22 -58.5t64 -21.5z" />
    <glyph glyph-name="nine.numr" horiz-adv-x="308" 
d="M152 705q61 0 91 -45.5t30 -113.5q0 -84 -34 -142.5t-103 -58.5q-36 0 -64 19t-28 40q0 18 19 18q18 0 18 -18q0 -15 1.5 -24t14.5 -20t39 -11q93 0 96 168q-38 -31 -81 -31q-52 0 -84 27t-32 80q0 50 33 81t84 31zM151 490q42 0 81 32v7q0 172 -80 172q-33 0 -54.5 -29
t-21.5 -77q0 -105 75 -105z" />
    <glyph glyph-name="emdash.cap" horiz-adv-x="640" 
d="M590 343h-540v12h540v-12z" />
    <glyph glyph-name="endash.cap" horiz-adv-x="490" 
d="M440 343h-390v12h390v-12z" />
    <glyph glyph-name="hyphen.cap" horiz-adv-x="390" 
d="M340 343h-290v12h290v-12z" />
    <glyph glyph-name="softhyphen.cap" horiz-adv-x="390" 
d="M340 343h-290v12h290v-12z" />
    <glyph glyph-name="guillemetleft.cap" horiz-adv-x="570" 
d="M310 555v-4q-53 -120 -188 -202q135 -82 188 -202v-4q-115 139 -270 203v6q155 64 270 203zM530 555v-4q-53 -120 -188 -202q135 -82 188 -202v-4q-115 139 -270 203v6q155 64 270 203z" />
    <glyph glyph-name="guillemetright.cap" horiz-adv-x="570" 
d="M40 551v4q115 -139 270 -203v-6q-155 -64 -270 -203v4q53 120 188 202q-135 82 -188 202zM260 551v4q115 -139 270 -203v-6q-155 -64 -270 -203v4q53 120 188 202q-135 82 -188 202z" />
    <glyph glyph-name="guilsinglleft.cap" horiz-adv-x="350" 
d="M310 555v-4q-53 -120 -188 -202q135 -82 188 -202v-4q-115 139 -270 203v6q155 64 270 203z" />
    <glyph glyph-name="guilsinglright.cap" horiz-adv-x="350" 
d="M40 551v4q115 -139 270 -203v-6q-155 -64 -270 -203v4q53 120 188 202q-135 82 -188 202z" />
    <glyph glyph-name="AT" horiz-adv-x="870" 
d="M454 732q154 0 260 -91.5t106 -234.5q0 -62 -16 -111t-40.5 -78.5t-56 -48.5t-59.5 -26t-54 -7q-46 0 -76.5 21t-30.5 55q0 14 7 31q-61 -92 -138 -92q-49 0 -75 26.5t-26 73.5q0 58 34.5 125.5t95 116.5t125.5 49q40 0 60 -22t20 -53q0 -15 -3 -22l42 89h38l-139 -293
q-9 -23 -9 -36q0 -27 22 -43.5t57 -16.5q34 0 68.5 13t68.5 41t55.5 82t21.5 126q0 140 -103 229t-255 89q-172 0 -284 -110t-112 -281q0 -157 102 -261t259 -104v-8q-161 0 -265 106t-104 267q0 174 114.5 286.5t289.5 112.5zM510 534q-75 0 -148 -104t-73 -201
q0 -33 17 -52.5t50 -19.5q46 0 88.5 37t74.5 106l49 102q14 29 14 64q0 29 -18.5 48.5t-53.5 19.5z" />
    <glyph glyph-name="Exclamdown" 
d="M145 750q13 0 21.5 -8t8.5 -22q0 -13 -8.5 -21.5t-21.5 -8.5q-14 0 -22 8.5t-8 21.5q0 30 30 30zM141 570h8q0 -122 13 -327t13 -223q0 -13 -8.5 -21.5t-21.5 -8.5q-14 0 -22 8.5t-8 21.5q0 18 13 223t13 327z" />
    <glyph glyph-name="Questiondown" horiz-adv-x="495" 
d="M305 750q30 0 30 -30q0 -13 -8 -21.5t-22 -8.5q-13 0 -21.5 8.5t-8.5 21.5q0 14 8.5 22t21.5 8zM304 570h8q0 -39 -21 -77.5t-50.5 -70.5l-59 -66.5t-50.5 -80t-21 -95.5q0 -83 38 -132.5t117 -49.5q76 0 108 33.5t32 68.5v5q0 25 25 25t25 -25q0 -39 -58.5 -77
t-131.5 -38q-95 0 -150 49.5t-55 143.5q0 54 25 99.5t61 77l72 61.5t61 67.5t25 81.5z" />
    </font>
</defs>
</svg>
