<?xml version="1.0" standalone="no"?>
<!DOCTYPE svg PUBLIC "-//W3C//DTD SVG 1.1//EN" "http://www.w3.org/Graphics/SVG/1.1/DTD/svg11.dtd" >
<svg>
<metadata>
Created by FontForge 20090622 at Wed Oct  7 08:23:53 2015
 By deploy user
Copyright &#194;&#169; 2015 by Dino dos Santo &#38; Pedro Leal. All rights reserved.
</metadata>
<defs>
<font id="JulesColossal-LightItalic" horiz-adv-x="290" >
  <font-face 
    font-family="Jules Colossal Light Italic"
    font-weight="300"
    font-style="italic"
    font-stretch="normal"
    units-per-em="1000"
    panose-1="0 0 4 0 0 0 0 0 0 0"
    ascent="750"
    descent="-250"
    x-height="510"
    cap-height="700"
    bbox="-149 -250 1476 980"
    underline-thickness="50"
    underline-position="-50"
    unicode-range="U+0020-U+FB02"
  />
<missing-glyph horiz-adv-x="500" 
 />
    <glyph glyph-name="fi" unicode="fi" horiz-adv-x="542" 
d="M625 750q49 0 73 -21.5t24 -55.5t-18.5 -63.5t-48.5 -29.5q-22 0 -22 20q0 9 11 18t24 16t24 23t11 37q0 23 -24.5 35.5t-57.5 12.5q-125 0 -207 -176l-31 -66h203q19 0 27.5 -5t8.5 -20q0 -17 -10 -38l-153 -333q-20 -44 -20 -62q0 -30 30 -30q42 0 116 95v-10
q-80 -107 -154 -107q-42 0 -42 44q0 28 19 70l177 384h-207l-251 -538q-46 -100 -88 -150t-102 -50q-36 0 -55.5 17.5t-19.5 45.5q0 21 18 21q17 0 17 -19q0 -27 11.5 -42t28.5 -15q32 0 58 36t82 156l251 538h-70l5 12h70l30 64q44 95 115.5 140.5t146.5 45.5z" />
    <glyph glyph-name="fl" unicode="fl" horiz-adv-x="547" 
d="M474 12q42 0 116 95v-10q-80 -107 -154 -107q-42 0 -42 44q0 29 19 70l285 610q-21 28 -77 28q-125 0 -207 -176l-31 -66h105l-5 -12h-105l-251 -538q-46 -100 -88 -150t-102 -50q-36 0 -55.5 17.5t-19.5 45.5q0 21 18 21q17 0 17 -19q0 -27 11.5 -42t28.5 -15
q32 0 57.5 35.5t82.5 156.5l251 538h-70l5 12h70l30 64q44 95 115.5 140.5t146.5 45.5q53 0 79 -26h48l-288 -620q-20 -44 -20 -62q0 -30 30 -30z" />
    <glyph glyph-name="f_f" unicode="ff" horiz-adv-x="545" 
d="M817 750q36 0 55.5 -17.5t19.5 -45.5q0 -21 -18 -21q-17 0 -17 19q0 27 -11.5 42t-28.5 15q-31 0 -55.5 -34.5t-84.5 -157.5l-24 -50h105l-5 -12h-105l-251 -538q-46 -100 -88 -150t-102 -50v8q32 0 58 36t82 156l251 538h-220l-251 -538q-46 -100 -88 -150t-102 -50
q-36 0 -55.5 17.5t-19.5 45.5q0 21 18 21q17 0 17 -19q0 -27 11.5 -42t28.5 -15q32 0 58 36t82 156l251 538h-70l5 12h70l30 64q44 95 115.5 140.5t146.5 45.5q76 0 93 -48q43 48 99 48zM603 500l24 50q49 103 84 144q-17 48 -90 48q-125 0 -207 -176l-31 -66h220z" />
    <glyph glyph-name="f_f_i" unicode="ffi" horiz-adv-x="812" 
d="M895 750q49 0 73 -21.5t24 -55.5t-18.5 -63.5t-48.5 -29.5q-22 0 -22 20q0 9 11 18t24 16t24 23t11 37q0 23 -24.5 35.5t-57.5 12.5q-125 0 -207 -176l-31 -66h203q19 0 27.5 -5t8.5 -20q0 -17 -10 -38l-153 -333q-20 -44 -20 -62q0 -30 30 -30q42 0 116 95v-10
q-80 -107 -154 -107q-42 0 -42 44q0 28 19 70l177 384h-207l-251 -538q-46 -100 -88 -150t-102 -50v8q32 0 58 36t82 156l251 538h-220l-251 -538q-46 -100 -88 -150t-102 -50q-36 0 -55.5 17.5t-19.5 45.5q0 21 18 21q17 0 17 -19q0 -27 11.5 -42t28.5 -15q32 0 57.5 35.5
t82.5 156.5l251 538h-70l5 12h70l30 64q44 95 115.5 140.5t146.5 45.5q39 0 67 -17.5t36 -42.5q76 60 167 60zM621 742q-125 0 -207 -176l-31 -66h220l30 64q34 74 88 120q-9 24 -35.5 41t-64.5 17z" />
    <glyph glyph-name="f_f_j" unicode="ffj" horiz-adv-x="792" 
d="M895 750q49 0 73 -21.5t24 -55.5t-18.5 -63.5t-48.5 -29.5q-22 0 -22 20q0 9 11 18t24 16t24 23t11 37q0 23 -24.5 35.5t-57.5 12.5q-125 0 -207 -176l-31 -66h204q19 0 27.5 -5t8.5 -20q0 -17 -10 -38l-227 -487q-47 -101 -88.5 -150.5t-101.5 -49.5v8q32 0 58 36
t82 156l251 538h-209l-251 -538q-46 -100 -88 -150t-102 -50v8q32 0 58 36t82 156l251 538h-220l-251 -538q-46 -100 -88 -150t-102 -50q-36 0 -55.5 17.5t-19.5 45.5q0 21 18 21q17 0 17 -19q0 -27 11.5 -42t28.5 -15q32 0 57.5 35.5t82.5 156.5l251 538h-70l5 12h70l30 64
q44 95 115.5 140.5t146.5 45.5q39 0 67 -17.5t36 -42.5q76 60 167 60zM621 742q-125 0 -207 -176l-31 -66h220l30 64q34 74 88 120q-9 24 -35.5 41t-64.5 17z" />
    <glyph glyph-name="f_f_l" unicode="ffl" horiz-adv-x="817" 
d="M744 12q42 0 116 95v-10q-80 -107 -154 -107q-42 0 -42 44q0 29 19 70l285 611q-21 27 -77 27q-125 0 -207 -176l-31 -66h105l-5 -12h-105l-251 -538q-46 -100 -88 -150t-102 -50v8q32 0 58 36t82 156l251 538h-220l-251 -538q-46 -100 -88 -150t-102 -50
q-36 0 -55.5 17.5t-19.5 45.5q0 21 18 21q17 0 17 -19q0 -27 11.5 -42t28.5 -15q32 0 57.5 35.5t82.5 156.5l251 538h-70l5 12h70l30 64q44 95 115.5 140.5t146.5 45.5q39 0 67 -17.5t36 -42.5q76 60 167 60q53 0 79 -26h48l-288 -620q-20 -44 -20 -62q0 -30 30 -30z
M603 500l30 64q34 74 88 120q-9 24 -35.5 41t-64.5 17q-125 0 -207 -176l-31 -66h220z" />
    <glyph glyph-name="f_j" unicode="fj" horiz-adv-x="522" 
d="M625 750q49 0 73 -21.5t24 -55.5t-18.5 -63.5t-48.5 -29.5q-22 0 -22 20q0 9 11 18t24 16t24 23t11 37q0 23 -24.5 35.5t-57.5 12.5q-125 0 -207 -176l-31 -66h204q19 0 27.5 -5t8.5 -20q0 -17 -10 -38l-227 -487q-47 -101 -88.5 -150.5t-101.5 -49.5v8q32 0 58 35.5
t82 156.5l251 538h-209l-251 -538q-46 -100 -88 -150t-102 -50q-36 0 -55.5 17.5t-19.5 45.5q0 21 18 21q17 0 17 -19q0 -27 11.5 -42t28.5 -15q32 0 58 36t82 156l251 538h-70l5 12h70l30 64q44 95 115.5 140.5t146.5 45.5z" />
    <glyph glyph-name=".notdef" horiz-adv-x="500" 
 />
    <glyph glyph-name=".null" horiz-adv-x="0" 
 />
    <glyph glyph-name="nonmarkingreturn" horiz-adv-x="333" 
 />
    <glyph glyph-name="space" unicode=" " horiz-adv-x="240" 
 />
    <glyph glyph-name="exclam" unicode="!" 
d="M495 750q19 0 19 -16q0 -9 -51 -107l-124.5 -238t-110.5 -219h-8q49 105 137 321t94 229q14 30 44 30zM168 60q14 0 21 -7.5t7 -17.5q0 -18 -15 -31.5t-36 -13.5q-27 0 -27 25q0 18 15.5 31.5t34.5 13.5z" />
    <glyph glyph-name="quotedbl" unicode="&#x22;" 
d="M421 710q19 0 19 -17q0 -15 -33 -62l-61 -91h-8l24 91q12 43 15 49q6 13 19 21.5t25 8.5zM531 710q19 0 19 -17q0 -15 -33 -62l-61 -91h-8l24 91q12 43 15 49q6 13 19 21.5t25 8.5z" />
    <glyph glyph-name="numbersign" unicode="#" horiz-adv-x="510" 
d="M493 323l-100 -148h149l-6 -12h-151l-111 -163h-14l111 163h-116l-111 -163h-14l111 163h-115l6 12h117l100 148h-148l5 12h151l112 165h14l-112 -165h116l112 165h14l-112 -165h115l-5 -12h-118zM479 323h-116l-100 -148h116z" />
    <glyph glyph-name="dollar" unicode="$" horiz-adv-x="550" 
d="M787 700l-81 -175h-8l2 10q11 42 11 73q0 32 -27.5 54.5t-69.5 32.5l-151 -309q4 -4 20 -17t21 -18t19 -17.5t19.5 -19l15.5 -18.5t14.5 -21.5l10 -22t7.5 -25.5t2 -27q0 -86 -76.5 -148t-200.5 -62q-24 0 -45 3l-40 -83h-12l41 84q-39 7 -73.5 22t-54 27t-26.5 12
q-11 0 -18 -15l-19 -40h-8l82 175h8l-3 -10q-11 -41 -11 -70q0 -37 35 -60.5t92 -32.5l170 348q-38 32 -57 50.5t-38 52.5t-19 70q0 80 65.5 133.5t175.5 53.5q19 0 47 -4l41 84h12l-42 -87q39 -9 78 -33.5t47 -24.5q11 0 18 15l18 40h8zM454 393l149 305q-30 4 -45 4
q-45 0 -80.5 -11t-56 -27.5t-34 -38.5t-18 -42t-4.5 -41q0 -44 23 -77.5t66 -71.5zM546 179q0 34 -16.5 65.5t-36 51t-52.5 47.5l-167 -343q28 -2 43 -2q62 0 108.5 18t71.5 46.5t37 58t12 58.5z" />
    <glyph glyph-name="percent" unicode="%" horiz-adv-x="715" 
d="M211 0h-13l633 700h13zM482 700q48 0 72.5 -23t24.5 -63q0 -54 -34.5 -117t-97.5 -110t-132 -47q-48 0 -73 23t-25 63q0 54 35 117t98 110t132 47zM481 696q-54 0 -108 -55.5t-84.5 -124t-30.5 -115.5q0 -57 58 -57q55 0 109 56.5t84 125t30 113.5q0 57 -58 57zM727 360
q48 0 72 -23t24 -63q0 -55 -34 -118t-97 -109.5t-133 -46.5q-48 0 -72.5 22.5t-24.5 62.5q0 54 35 117.5t98 110.5t132 47zM725 356q-54 0 -108 -55.5t-84 -124t-30 -115.5q0 -57 58 -57q54 0 108 55.5t84 124t30 115.5q0 57 -58 57z" />
    <glyph glyph-name="ampersand" unicode="&#x26;" horiz-adv-x="680" 
d="M548 90q55 -85 128 -133.5t146 -48.5l-2 -8q-79 0 -159.5 43.5t-140.5 121.5q-95 -75 -211 -75q-81 0 -134.5 38t-53.5 107q0 30 10.5 55.5t33 47.5t46 39t62 35t67 30t74.5 29v23q0 141 71 228.5t190 87.5q43 0 65.5 -24t22.5 -53q0 -28 -9.5 -53.5t-23.5 -45.5
t-39.5 -40t-48 -34t-58.5 -30t-62 -26.5l-66 -25.5q12 -157 88 -281q80 76 148 220q7 14 7 21q0 9 -23 9h-68l4 8h194l-4 -8h-60q-18 0 -25.5 -5.5t-16.5 -24.5q-70 -149 -152 -227zM454 430q0 -29 1 -44q46 17 75.5 29t68.5 30.5t63 36.5t47.5 40.5t34 49.5t10.5 58
q0 32 -21 52t-60 20q-38 0 -75 -15.5t-70 -46.5t-53.5 -85.5t-20.5 -124.5zM311 -2q111 0 205 73q-93 126 -101 292q-54 -20 -88 -34t-75.5 -36.5t-65.5 -43.5t-40.5 -50.5t-16.5 -63.5q0 -68 53 -102.5t129 -34.5z" />
    <glyph glyph-name="quotesingle" unicode="'" horiz-adv-x="180" 
d="M421 710q19 0 19 -17q0 -15 -33 -62l-61 -91h-8l24 91q12 43 15 49q6 13 19 21.5t25 8.5z" />
    <glyph glyph-name="parenleft" unicode="(" horiz-adv-x="305" 
d="M615 790h8q-110 -79 -211 -219t-161 -289.5t-60 -261.5q0 -65 22 -110h-8q-40 89 -40 175q0 187 127.5 376t322.5 329z" />
    <glyph glyph-name="parenright" unicode=")" horiz-adv-x="305" 
d="M418 790h8q40 -85 40 -175q0 -186 -128 -376.5t-322 -328.5h-8q110 79 211 219t161 289.5t60 261.5q0 65 -22 110z" />
    <glyph glyph-name="asterisk" unicode="*" horiz-adv-x="410" 
d="M536 710q19 0 19 -16q0 -13 -14.5 -33.5t-37 -49.5t-34.5 -53q28 14 60.5 36.5l54.5 36.5t37 14q18 0 18 -17q0 -22 -22 -34.5t-65 -20.5q-48 -9 -82 -23q22 -14 61 -23q16 -4 24.5 -6.5t16 -8.5t7.5 -14q0 -12 -15 -27.5t-32 -15.5q-15 0 -23.5 14t-19.5 37t-26 37
q-11 -25 -17.5 -65.5t-14.5 -57.5q-14 -30 -44 -30q-19 0 -19 16q0 13 14.5 34t37 50t34.5 53q-28 -14 -60.5 -37l-54 -37t-36.5 -14q-19 0 -19 18q0 37 84 54q54 10 85 23q-21 15 -63 24q-45 11 -45 29q0 13 14 27.5t33 14.5q14 0 23 -14t20 -36.5t26 -36.5q11 25 17.5 65
t13.5 57q14 30 44 30z" />
    <glyph glyph-name="plus" unicode="+" horiz-adv-x="390" 
d="M453 243h-138l-65 -139h-13l65 139h-139l6 12h138l65 139h13l-65 -139h139z" />
    <glyph glyph-name="comma" unicode="," horiz-adv-x="180" 
d="M100 50q30 0 30 -31q0 -36 -34 -67.5t-75 -31.5v8q27 0 51 15t24 30q0 12 -16 24t-16 23q0 14 10 22t26 8z" />
    <glyph glyph-name="hyphen" unicode="-" horiz-adv-x="390" 
d="M453 243h-290l6 12h290z" />
    <glyph glyph-name="period" unicode="." horiz-adv-x="180" 
d="M108 60q14 0 21 -7.5t7 -17.5q0 -18 -15 -31.5t-36 -13.5q-27 0 -27 25q0 18 15.5 31.5t34.5 13.5z" />
    <glyph glyph-name="slash" unicode="/" horiz-adv-x="480" 
d="M96 0h-16l630 700h16z" />
    <glyph glyph-name="zero" unicode="0" horiz-adv-x="650" 
d="M656 710q147 0 147 -141q0 -59 -24 -135t-70 -153.5t-104 -143t-133.5 -106.5t-151.5 -41q-148 0 -148 140q0 74 39 172.5t102 189.5t155.5 154.5t187.5 63.5zM652 702q-67 0 -135.5 -46t-121.5 -116.5t-95.5 -151.5t-65 -156t-22.5 -124q0 -110 112 -110q68 0 137 46
t122 116.5t95 152t64.5 156t22.5 123.5q0 110 -113 110z" />
    <glyph glyph-name="one" unicode="1" horiz-adv-x="370" 
d="M541 710l-313 -672q-7 -14 -7 -21q0 -9 23 -9h80l-4 -8h-270l4 8h80q20 0 27.5 5.5t16.5 24.5l283 607q4 8 4 15q0 11 -23 7q-35 -5 -83 -5l3 8q126 0 171 40h8z" />
    <glyph glyph-name="two" unicode="2" horiz-adv-x="550" 
d="M586 710q69 0 107.5 -26.5t38.5 -78.5q0 -110 -126.5 -231.5t-402.5 -285.5l-64 -38h246q62 0 93 15t56 69l14 30h8l-76 -164h-430l4 8l148 87q171 101 282.5 199.5t157 176t45.5 145.5q0 86 -105 86q-40 0 -73 -10.5t-53 -28t-31.5 -32t-19.5 -30.5q-15 -31 -39 -31
q-17 0 -17 14q0 34 77.5 80t159.5 46z" />
    <glyph glyph-name="three" unicode="3" horiz-adv-x="565" 
d="M586 710q73 0 114.5 -25t41.5 -72q0 -87 -97 -161.5t-223 -89.5q70 -5 120.5 -36t50.5 -86q0 -95 -103 -172.5t-240 -77.5q-67 0 -106.5 27.5t-39.5 63.5q0 20 11 34.5t31 14.5q16 0 16 -13q0 -3 -7.5 -23t-7.5 -32q0 -64 107 -64q65 0 122 25t93 63.5t56.5 82t20.5 83.5
q0 30 -15.5 52t-42.5 33t-54.5 16t-60.5 5q-13 -1 -28 -3.5t-21 -2.5q-9 0 -9 6q0 14 18 14q6 0 18.5 -2.5t25.5 -3.5q129 2 222.5 79t93.5 172q0 39 -27.5 62t-83.5 23q-75 0 -117.5 -32.5t-59.5 -69.5l-3 -5q-12 -25 -36 -25q-17 0 -17 14q0 34 77.5 80t159.5 46z" />
    <glyph glyph-name="four" unicode="4" horiz-adv-x="570" 
d="M502 196h109l-3 -8h-110l-70 -150q-7 -14 -7 -21q0 -9 23 -9h80l-4 -8h-270l4 8h80q20 0 27.5 5.5t16.5 24.5l70 150h-330l3 8l612 514h8zM452 196l204 440l-523 -440h319z" />
    <glyph glyph-name="five" unicode="5" horiz-adv-x="560" 
d="M798 720h8q-43 -90 -160 -90q-36 0 -107 10t-101 10l-158 -292q100 52 177 52q73 0 113 -28t40 -82q0 -117 -109.5 -213.5t-250.5 -96.5q-67 0 -106.5 27.5t-39.5 63.5q0 20 11 34.5t31 14.5q16 0 16 -13q0 -4 -7.5 -22.5t-7.5 -32.5q0 -64 107 -64q68 0 128.5 33.5
t99 83t61 103t22.5 96.5q0 88 -111 88q-83 0 -181 -57h-8l191 355q40 0 135 -17.5t132 -17.5q50 0 75 55z" />
    <glyph glyph-name="six" unicode="6" horiz-adv-x="590" 
d="M657 710q60 0 96 -27t36 -62q0 -20 -11 -35.5t-31 -15.5q-17 0 -17 14q0 5 9 24t9 35q0 59 -95 59q-55 0 -110 -30t-102 -81t-85.5 -110t-70.5 -126q34 20 57 32t66.5 25t86.5 13q72 0 111.5 -27t39.5 -81q0 -53 -29.5 -111.5t-77 -106t-113 -78.5t-131.5 -31
q-135 0 -135 126q0 64 41.5 163.5t107.5 195.5t160.5 165.5t187.5 69.5zM492 417q-41 0 -86 -14t-67.5 -25.5t-58.5 -33.5q-75 -158 -75 -248q0 -98 94 -98q56 0 113 34.5t98 85t67 109t26 105.5q0 85 -111 85z" />
    <glyph glyph-name="seven" unicode="7" horiz-adv-x="550" 
d="M832 710h9q-55 -61 -147 -146.5l-156.5 -147t-141.5 -164t-132 -220.5q-20 -42 -45 -42q-14 0 -14 13q0 10 8 26q38 81 124 184.5t167 180.5l171 160.5t116 111.5q-66 -46 -134 -46q-49 0 -118.5 20t-98.5 20q-43 0 -74 -23t-45 -51l-15 -33h-8l68 147h8l-39 -85
q27 46 76.5 70.5t104.5 24.5q40 0 115 -27.5t112 -27.5q41 0 89 55z" />
    <glyph glyph-name="eight" unicode="8" horiz-adv-x="590" 
d="M758 605q0 -75 -65.5 -130t-199.5 -99q4 -4 11 -12q34 -37 50.5 -57t33.5 -53t17 -62q0 -81 -82 -141.5t-213 -60.5q-86 0 -129.5 35t-43.5 85q0 140 307 257q-81 90 -81 153q0 82 64.5 136t188.5 54q69 0 105.5 -30t36.5 -75zM489 382q113 36 172.5 99t59.5 129
q0 47 -32.5 69.5t-74.5 22.5q-99 0 -155 -45.5t-56 -113.5q0 -41 22 -78t64 -83zM312 -2q65 0 116.5 17.5t80 44.5t43 55t14.5 55q0 15 -3 29t-11.5 30l-14 26t-20 28l-20.5 25t-25 27.5t-23 25.5q-57 -24 -102 -49t-87 -57.5t-65 -73t-23 -85.5q0 -41 35.5 -69.5
t104.5 -28.5z" />
    <glyph glyph-name="nine" unicode="9" horiz-adv-x="590" 
d="M621 710q136 0 136 -126q0 -51 -25.5 -126t-73.5 -156t-108 -151t-137.5 -115.5t-153.5 -45.5q-60 0 -96 27t-36 62q0 20 11.5 35.5t31.5 15.5q16 0 16 -13q0 -4 -8 -24t-8 -37q0 -58 93 -58q106 0 203 101.5t167 247.5q-37 -22 -58.5 -33t-66 -25t-87.5 -14
q-72 0 -111.5 27t-39.5 81q0 53 29.5 111.5t77 106t113 78.5t131.5 31zM637 356q75 158 75 249q0 97 -95 97q-73 0 -145.5 -57t-115 -134.5t-42.5 -142.5q0 -85 111 -85q91 0 212 73z" />
    <glyph glyph-name="colon" unicode=":" horiz-adv-x="180" 
d="M228 320q14 0 21 -7.5t7 -17.5q0 -18 -15 -31.5t-36 -13.5q-27 0 -27 25q0 18 15.5 31.5t34.5 13.5zM108 60q14 0 21 -7.5t7 -17.5q0 -18 -15 -31.5t-36 -13.5q-27 0 -27 25q0 18 15.5 31.5t34.5 13.5z" />
    <glyph glyph-name="semicolon" unicode=";" horiz-adv-x="180" 
d="M228 320q14 0 21 -7.5t7 -17.5q0 -18 -15 -31.5t-36 -13.5q-27 0 -27 25q0 18 15.5 31.5t34.5 13.5zM100 50q30 0 30 -31q0 -36 -34 -67.5t-75 -31.5v8q27 0 51 15t24 30q0 12 -16 24t-16 23q0 14 10 22t26 8z" />
    <glyph glyph-name="less" unicode="&#x3c;" horiz-adv-x="390" 
d="M491 322l-303 -74l234 -74l-6 -11l-253 80l6 12l327 80z" />
    <glyph glyph-name="equal" unicode="=" horiz-adv-x="390" 
d="M491 323h-290l5 12h290zM416 163h-290l6 12h290z" />
    <glyph glyph-name="greater" unicode="&#x3e;" horiz-adv-x="390" 
d="M459 255l-6 -12l-327 -80l6 13l302 74l-233 74l5 11z" />
    <glyph glyph-name="question" unicode="?" horiz-adv-x="505" 
d="M580 750q67 0 103.5 -25.5t36.5 -74.5q0 -58 -28 -109t-71 -86.5t-97 -72t-102.5 -66t-90.5 -68.5t-59 -78h-12q14 38 62.5 82.5t106 87.5t113.5 90t93.5 107t37.5 122q0 83 -99 83q-48 0 -83.5 -13.5t-54 -33t-32 -39t-26.5 -33t-29 -13.5t-16 13q0 35 81 81t166 46z
M213 60q14 0 21 -7.5t7 -17.5q0 -18 -15 -31.5t-36 -13.5q-27 0 -27 25q0 18 15.5 31.5t34.5 13.5z" />
    <glyph glyph-name="at" unicode="@" horiz-adv-x="870" 
d="M758 652q114 0 180.5 -52t66.5 -142q0 -91 -59 -186t-149 -156t-175 -61q-37 0 -59 13t-22 36q0 26 28 56q-104 -90 -180 -90q-69 0 -69 50q0 34 39.5 92t97.5 113t132.5 95.5t135.5 40.5q54 0 54 -41q0 -28 -22 -56l83 89h38l-275 -293q-32 -35 -32 -59q0 -17 15 -27
t42 -10q81 0 168 60t144 152.5t57 179.5t-65.5 137.5t-177.5 50.5q-117 0 -233 -54t-199 -136t-135 -180.5t-52 -185.5q0 -92 60.5 -146t171.5 -54l-4 -8q-114 0 -175.5 55t-61.5 149q0 93 53 194t138 183.5t203 136.5t238 54zM722 454q-49 0 -116.5 -42.5t-123 -99.5
t-94.5 -114t-39 -86q0 -35 43 -35q96 0 230 143l96 102q53 57 53 96q0 36 -49 36z" />
    <glyph glyph-name="A" unicode="A" horiz-adv-x="710" 
d="M709 8l-4 -8h-193l4 8h52q16 0 22 6.5t7 23.5l10 195h-330l-166 -193q-14 -17 -14 -24q0 -8 14 -8h58l-4 -8h-160l4 8h35q20 0 28.5 4.5t26.5 25.5l572 667h8l-33 -667q-1 -19 5 -24.5t27 -5.5h31zM629 644l-346 -403h324z" />
    <glyph glyph-name="B" unicode="B" horiz-adv-x="630" 
d="M785 601q0 -73 -70 -146.5t-159 -91.5q57 -7 87.5 -34t30.5 -71q0 -96 -97.5 -177t-226.5 -81h-300l4 8h40q20 0 27.5 5.5t16.5 24.5l291 624q7 14 7 21q0 9 -23 9h-40l3 8h250q79 0 119 -26t40 -73zM341 366h165q92 0 163.5 82t71.5 169q0 75 -118 75h-131zM630 274
q0 84 -118 84h-175l-163 -350h180q106 0 191 84.5t85 181.5z" />
    <glyph glyph-name="C" unicode="C" horiz-adv-x="740" 
d="M751 710q46 0 84.5 -10t58 -22.5l35.5 -22.5t23 -10q11 0 18 15l18 40h8l-81 -175h-8l2 10q8 28 8 55q0 112 -170 112q-93 0 -187.5 -52.5t-163.5 -130.5t-112.5 -170.5t-43.5 -170.5q0 -83 47.5 -131.5t131.5 -48.5q207 0 318 167l7 10h8l-82 -175h-8l19 40q3 6 3 9
q0 6 -7 6q-6 0 -44.5 -16.5t-98.5 -32.5t-119 -16q-104 0 -163 54t-59 145q0 84 47.5 177t123.5 168.5t180 125.5t207 50z" />
    <glyph glyph-name="D" unicode="D" horiz-adv-x="770" 
d="M376 700h300q105 0 166 -52t61 -142q0 -82 -47 -172.5t-122.5 -164t-178.5 -121.5t-205 -48h-300l4 8h40q20 0 27.5 5.5t16.5 24.5l291 624q7 14 7 21q0 9 -23 9h-40zM673 692h-150q-20 0 -27.5 -5.5t-16.5 -24.5l-291 -624q-7 -14 -7 -21q0 -9 23 -9h150q92 0 186 50.5
t162.5 126.5t111.5 166t43 167q0 81 -49 127.5t-135 46.5z" />
    <glyph glyph-name="E" unicode="E" horiz-adv-x="645" 
d="M876 700l-76 -164h-8l14 30q21 43 21 74q0 52 -68 52h-236q-20 0 -27.5 -5.5t-16.5 -24.5l-140 -300h166q106 0 147 88l14 30h8l-114 -244h-8l14 30q12 25 12 43q0 45 -77 45h-166l-147 -316q-7 -14 -7 -21q0 -9 23 -9h261q106 0 164 126l14 30h8l-76 -164h-525l4 8h40
q20 0 27.5 5.5t16.5 24.5l291 624q7 14 7 21q0 9 -23 9h-40l3 8h500z" />
    <glyph glyph-name="F" unicode="F" horiz-adv-x="600" 
d="M800 536h-8l14 30q21 43 21 74q0 52 -68 52h-236q-20 0 -27.5 -5.5t-16.5 -24.5l-140 -300h166q106 0 147 88l14 30h8l-114 -244h-8l14 30q11 24 11 41q0 47 -76 47h-166l-147 -316q-7 -14 -7 -21q0 -9 23 -9h40l-4 -8h-190l4 8h40q20 0 27.5 5.5t16.5 24.5l291 624
q7 14 7 21q0 9 -23 9h-40l3 8h500z" />
    <glyph glyph-name="G" unicode="G" horiz-adv-x="820" 
d="M751 710q46 0 84.5 -10t58 -22.5l35.5 -22.5t23 -10q11 0 18 15l18 40h8l-81 -175h-8l2 10q8 28 8 55q0 112 -170 112q-93 0 -187.5 -52.5t-163.5 -130.5t-112.5 -170.5t-43.5 -170.5q0 -83 47.5 -131.5t131.5 -48.5q230 0 329 212l48 102q7 14 7 21q0 9 -23 9h-40l3 8
h190l-3 -8h-40q-20 0 -27.5 -5.5t-16.5 -24.5l-48 -102q-43 -93 -150.5 -156.5t-232.5 -63.5q-104 0 -163 54t-59 145q0 84 47.5 177t123.5 168.5t180 125.5t207 50z" />
    <glyph glyph-name="H" unicode="H" horiz-adv-x="800" 
d="M1076 700l-3 -8h-40q-20 0 -27.5 -5.5t-16.5 -24.5l-291 -624q-7 -14 -7 -21q0 -9 23 -9h40l-4 -8h-190l4 8h40q20 0 27.5 5.5t16.5 24.5l149 320h-460l-149 -320q-7 -14 -7 -21q0 -9 23 -9h40l-4 -8h-190l4 8h40q20 0 27.5 5.5t16.5 24.5l291 624q7 14 7 21q0 9 -23 9
h-40l3 8h190l-3 -8h-40q-20 0 -27.5 -5.5t-16.5 -24.5l-138 -296h460l138 296q7 14 7 21q0 9 -23 9h-40l3 8h190z" />
    <glyph glyph-name="I" unicode="I" 
d="M563 692h-40q-20 0 -27.5 -5.5t-16.5 -24.5l-291 -624q-7 -14 -7 -21q0 -9 23 -9h40l-4 -8h-190l4 8h40q20 0 27.5 5.5t16.5 24.5l291 624q7 14 7 21q0 9 -23 9h-40l3 8h190z" />
    <glyph glyph-name="J" unicode="J" horiz-adv-x="365" 
d="M643 692h-40q-20 0 -27.5 -5.5t-16.5 -24.5l-222 -476q-91 -196 -227 -196q-35 0 -51 14.5t-16 34.5q0 17 11.5 31.5t30.5 14.5q16 0 16 -13q0 -12 -12.5 -28t-12.5 -27q0 -19 38 -19q45 0 83 38.5t79 127.5l233 498q7 14 7 21q0 9 -23 9h-40l3 8h190z" />
    <glyph glyph-name="K" unicode="K" horiz-adv-x="655" 
d="M563 692h-40q-20 0 -27.5 -5.5t-16.5 -24.5l-291 -624q-7 -14 -7 -21q0 -9 23 -9h40l-4 -8h-190l4 8h40q20 0 27.5 5.5t16.5 24.5l291 624q7 14 7 21q0 9 -23 9h-40l3 8h190zM923 692h-44q-33 0 -74 -30l-415 -291l183 -333q10 -18 17.5 -24t24.5 -6h39l-4 -8h-220l4 8
h55q20 0 28.5 8.5t0.5 21.5l-172 312l445 312q16 12 16 20q0 10 -17 10h-67l3 8h200z" />
    <glyph glyph-name="L" unicode="L" horiz-adv-x="580" 
d="M563 692h-40q-20 0 -27.5 -5.5t-16.5 -24.5l-291 -624q-7 -14 -7 -21q0 -9 23 -9h216q106 0 164 126l14 30h8l-76 -164h-480l4 8h40q20 0 27.5 5.5t16.5 24.5l291 624q7 14 7 21q0 9 -23 9h-40l3 8h190z" />
    <glyph glyph-name="M" unicode="M" horiz-adv-x="840" 
d="M1113 692h-40q-20 0 -27.5 -5.5t-16.5 -24.5l-291 -624q-7 -14 -7 -21q0 -9 23 -9h40l-4 -8h-190l4 8h40q20 0 27.5 5.5t16.5 24.5l297 635l-578 -673h-9l31 670l-293 -632q-8 -16 -8 -21q0 -9 24 -9h36l-4 -8h-144l4 8h38q20 0 27.5 5t16.5 25l291 624q7 14 7 21
q0 9 -23 9h-38l3 8h111l-30 -640l551 640h118z" />
    <glyph glyph-name="N" unicode="N" horiz-adv-x="730" 
d="M1013 692h-38q-20 -1 -27.5 -6t-16.5 -24l-309 -667h-8l-186 670l-294 -627q-7 -14 -7 -21q0 -9 23 -9h40l-4 -8h-146l4 8h38q20 0 27.5 5.5t16.5 24.5l291 624q7 14 7 21q0 9 -23 9h-38l3 8h102l178 -637l277 599q7 14 7 21q0 9 -23 9h-38l3 8h144z" />
    <glyph glyph-name="O" unicode="O" horiz-adv-x="840" 
d="M751 710q104 0 163.5 -54t59.5 -145q0 -82 -48 -175t-124.5 -169.5t-180.5 -126.5t-206 -50q-104 0 -163 54t-59 145q0 84 47.5 177t123.5 168.5t180 125.5t207 50zM747 702q-93 0 -187.5 -52.5t-163.5 -130.5t-112.5 -170.5t-43.5 -170.5q0 -83 47.5 -131.5t131.5 -48.5
q93 0 188 53t164 131.5t112.5 171t43.5 169.5q0 83 -47.5 131t-132.5 48z" />
    <glyph glyph-name="P" unicode="P" horiz-adv-x="610" 
d="M376 700h275q160 0 160 -103q0 -47 -24.5 -96t-67 -90t-107.5 -67t-139 -26h-155l-130 -280q-7 -14 -7 -21q0 -9 23 -9h40l-4 -8h-190l4 8h40q20 0 27.5 5.5t16.5 24.5l291 624q7 14 7 21q0 9 -23 9h-40zM493 692l-171 -366h155q81 0 149.5 47t104.5 112.5t36 127.5
q0 79 -119 79h-155z" />
    <glyph glyph-name="Q" unicode="Q" horiz-adv-x="840" 
d="M974 511q0 -105 -72 -220.5t-193.5 -200.5t-250.5 -98q42 -9 69.5 -32t39.5 -49l22.5 -50.5t27 -40.5t42.5 -16q8 0 22 4l-4 -8q-30 -10 -60 -10q-34 0 -55.5 20.5t-32.5 50l-22 59t-33.5 50t-58.5 20.5q-104 0 -163 54t-59 145q0 84 47.5 177t123.5 168.5t180 125.5
t207 50q104 0 163.5 -54t59.5 -145zM419 -2q93 0 188 53t164 131.5t112.5 171t43.5 169.5q0 83 -47.5 131t-132.5 48q-93 0 -187.5 -52.5t-163.5 -130.5t-112.5 -170.5t-43.5 -170.5q0 -83 47.5 -131.5t131.5 -48.5z" />
    <glyph glyph-name="R" unicode="R" horiz-adv-x="680" 
d="M811 582q0 -89 -79.5 -167t-205.5 -94q80 -17 80 -99q0 -20 -13.5 -79.5t-13.5 -86.5q0 -55 53 -55q17 0 47 7l-4 -8q-47 -10 -69 -10q-73 0 -73 70q0 28 13.5 90.5t13.5 86.5q0 44 -22 62.5t-65 18.5h-155l-130 -280q-7 -14 -7 -21q0 -9 23 -9h40l-4 -8h-190l4 8h40
q20 0 27.5 5.5t16.5 24.5l291 624q7 14 7 21q0 9 -23 9h-40l3 8h265q170 0 170 -118zM322 326h155q121 1 205.5 85.5t84.5 181.5q0 99 -129 99h-145z" />
    <glyph glyph-name="S" unicode="S" horiz-adv-x="550" 
d="M560 710q48 0 87 -16t63 -32.5t33 -16.5q11 0 18 15l18 40h8l-81 -175h-8l2 10q11 42 11 73q0 43 -48 68.5t-105 25.5q-45 0 -80.5 -11t-56 -27.5t-34 -38.5t-18 -42t-4.5 -41q0 -42 23.5 -78t56.5 -63.5l66.5 -55.5t57 -65t23.5 -80q0 -86 -76.5 -148t-200.5 -62
q-43 0 -82.5 10t-62 22.5l-40.5 22.5t-25 10q-11 0 -18 -15l-19 -40h-8l82 175h8l-3 -10q-11 -41 -11 -70q0 -45 53 -71t128 -26q62 0 108.5 18t71.5 46.5t37 58t12 58.5q0 42 -23.5 78.5t-57 65l-66.5 56.5t-56.5 65t-23.5 79q0 80 65.5 133.5t175.5 53.5z" />
    <glyph glyph-name="T" unicode="T" horiz-adv-x="650" 
d="M850 536h-8l14 30q21 43 21 74q0 52 -68 52h-106q-20 0 -27.5 -5.5t-16.5 -24.5l-291 -624q-7 -14 -7 -21q0 -9 23 -9h40l-4 -8h-190l4 8h40q20 0 27.5 5.5t16.5 24.5l291 624q7 14 7 21q0 9 -23 9h-106q-107 0 -165 -126l-14 -30h-8l76 164h550z" />
    <glyph glyph-name="U" unicode="U" horiz-adv-x="715" 
d="M1003 692h-38q-20 0 -27.5 -5.5t-16.5 -24.5l-204 -437q-39 -83 -101 -138t-125 -76t-131 -21q-184 0 -184 120q0 52 36 130l197 422q7 14 7 21q0 9 -23 9h-40l3 8h190l-3 -8h-40q-20 0 -27.5 -5.5t-16.5 -24.5l-204 -437q-35 -76 -35 -126q0 -101 144 -101
q103 0 196.5 54.5t148.5 172.5l204 437q7 14 7 21q0 9 -23 9h-38l3 8h144z" />
    <glyph glyph-name="V" unicode="V" horiz-adv-x="710" 
d="M368 -5l33 667q1 19 -5 24.5t-27 5.5h-31l4 8h193l-4 -8h-52q-16 0 -22 -6.5t-7 -23.5l-32 -605l518 603q14 17 14 24q0 8 -14 8h-58l4 8h160l-4 -8h-35q-20 0 -28.5 -4.5t-26.5 -25.5l-572 -667h-8z" />
    <glyph glyph-name="W" unicode="W" horiz-adv-x="1020" 
d="M1341 700l-3 -8h-44q-20 0 -29.5 -5t-25.5 -25l-553 -667h-8l53 478l-395 -478h-8l74 667q1 20 -4.5 25t-25.5 5h-34l3 8h206l-3 -8h-66q-16 0 -21.5 -6.5t-7.5 -23.5l-67 -599l350 423l20 176q1 20 -4.5 25t-25.5 5h-34l3 8h206l-3 -8h-67q-16 0 -21.5 -6t-7.5 -24
l-68 -602l497 600q14 17 14 24q0 8 -14 8h-64l3 8h175z" />
    <glyph glyph-name="X" unicode="X" horiz-adv-x="640" 
d="M931 700l-3 -8h-48q-21 0 -33 -5.5t-32 -24.5l-302 -283l42 -341q2 -20 6.5 -25t20.5 -5h52l-4 -8h-220l4 8h62q33 0 29 30l-37 302l-328 -302q-15 -12 -15 -21t16 -9h63l-4 -8h-190l4 8h49q20 0 32 5.5t33 24.5l339 311l-39 313q-2 20 -6.5 25t-20.5 5h-53l3 8h220
l-3 -8h-61q-33 0 -29 -30l34 -274l291 274q15 14 16 22q1 4 -4 6t-13 2h-64l3 8h190z" />
    <glyph glyph-name="Y" unicode="Y" horiz-adv-x="670" 
d="M983 692h-25q-43 0 -75 -30l-387 -371l-118 -253q-7 -14 -7 -21q0 -9 23 -9h40l-4 -8h-190l4 8h40q20 0 27.5 5.5t16.5 24.5l119 256l-39 368q-2 18 -9.5 24t-27.5 6h-38l3 8h223l-3 -8h-70q-21 0 -26 -6.5t-3 -23.5l36 -362l376 359q19 19 19 26t-18 7h-72l3 8h185z" />
    <glyph glyph-name="Z" unicode="Z" horiz-adv-x="640" 
d="M883 692l-756 -684h343q106 0 164 126l14 30h8l-76 -164h-520l4 8l756 684h-303q-107 0 -165 -126l-14 -30h-8l76 164h480z" />
    <glyph glyph-name="bracketleft" unicode="[" 
d="M605 782h-70l-403 -864h70l-4 -8h-120l410 880h120z" />
    <glyph glyph-name="backslash" unicode="\" horiz-adv-x="480" 
d="M450 0h-13l-81 700h13z" />
    <glyph glyph-name="bracketright" unicode="]" 
d="M128 -90h-120l4 8h70l403 864h-70l3 8h120z" />
    <glyph glyph-name="asciicircum" unicode="^" horiz-adv-x="420" 
d="M357 320h5q7 -35 29 -81.5t49 -66.5l-4 -4q-79 44 -107 87q-69 -44 -189 -87v4q46 20 112.5 67t104.5 81z" />
    <glyph glyph-name="underscore" unicode="_" horiz-adv-x="450" 
d="M381 -40h-350l6 12h350z" />
    <glyph glyph-name="grave" unicode="`" 
d="M405 700q13 0 23.5 -10.5t10.5 -35.5q0 -35 11 -56t41 -42l-4 -6q-6 4 -26 16t-32.5 20.5t-27.5 21.5t-23 27t-8 28q0 15 9.5 26t25.5 11z" />
    <glyph glyph-name="a" unicode="a" horiz-adv-x="580" 
d="M490 510q55 0 75 -33.5t8 -82.5l52 106h50l-187 -396q-20 -44 -20 -62q0 -30 30 -30q42 0 116 95v-10q-80 -107 -154 -107q-42 0 -42 44q0 32 23 78q-84 -122 -176 -122q-65 0 -100 34t-35 92q0 44 18 97.5t51.5 105.5t77 95t99.5 69.5t114 26.5zM488 502
q-57 0 -116.5 -43.5t-102.5 -105.5t-70 -131.5t-27 -121.5q0 -49 26 -75.5t69 -26.5q51 0 105.5 46t104.5 148l59 123q41 77 31 132t-79 55z" />
    <glyph glyph-name="b" unicode="b" horiz-adv-x="546" 
d="M425 740h50l-169 -361q85 131 188 131q63 0 95 -35t32 -98q0 -78 -41 -167t-116.5 -154.5t-159.5 -65.5q-62 0 -99.5 35.5t-37.5 100.5q0 66 41 154zM282 320l-27 -50q-43 -82 -43 -171q0 -47 24 -74t68 -27q64 0 129 66.5t105.5 161.5t40.5 179q0 42 -21.5 69.5
t-68.5 27.5q-111 0 -207 -182z" />
    <glyph glyph-name="c" unicode="c" horiz-adv-x="485" 
d="M485 510q61 0 88 -25t27 -58q0 -13 -9 -18t-17.5 -0.5t-8.5 16.5q0 43 -17 60t-63 17q-64 0 -137.5 -65t-123 -160.5t-49.5 -177.5q0 -100 90 -100q104 0 184 110v-10q-80 -109 -184 -109q-66 0 -100.5 35t-34.5 98q0 56 31 124.5t79.5 126.5t114.5 97t130 39z" />
    <glyph glyph-name="d" unicode="d" horiz-adv-x="580" 
d="M490 510q55 0 75 -33.5t8 -82.5l167 346h50l-302 -636q-20 -44 -20 -62q0 -30 30 -30q42 0 116 95v-10q-80 -107 -154 -107q-42 0 -42 44q0 32 23 78q-84 -122 -176 -122q-65 0 -100 34t-35 92q0 44 18 97.5t51.5 105.5t77 95t99.5 69.5t114 26.5zM488 502
q-57 0 -116.5 -43.5t-102.5 -105.5t-70 -131.5t-27 -121.5q0 -49 26 -75.5t69 -26.5q51 0 105.5 46t104.5 148l59 123q41 77 31 132t-79 55z" />
    <glyph glyph-name="e" unicode="e" horiz-adv-x="470" 
d="M575 453q0 -47 -95 -105t-271 -102q-34 -81 -34 -147q0 -100 90 -100q104 0 184 110v-10q-80 -109 -184 -109q-66 0 -100.5 35t-34.5 98q0 57 31 124.5t80.5 126t118 97.5t135.5 39q37 0 58.5 -15.5t21.5 -41.5zM495 502q-75 0 -155 -73t-127 -174q158 39 244.5 96
t86.5 104q0 21 -13.5 34t-35.5 13z" />
    <glyph glyph-name="f" unicode="f" horiz-adv-x="275" 
d="M547 750q36 0 55.5 -17.5t19.5 -45.5q0 -21 -18 -21q-17 0 -17 19q0 27 -11.5 42t-28.5 15q-31 0 -55.5 -34.5t-84.5 -157.5l-24 -50h105l-5 -12h-105l-251 -538q-46 -100 -88 -150t-102 -50q-36 0 -55.5 17.5t-19.5 45.5q0 21 18 21q17 0 17 -19q0 -27 11.5 -42
t28.5 -15q32 0 58 36t82 156l251 538h-70l5 12h70l24 50q24 49 40.5 79t40.5 61t50.5 45.5t58.5 14.5z" />
    <glyph glyph-name="g" unicode="g" horiz-adv-x="555" 
d="M491 510q55 0 75 -33.5t8 -82.5l52 106h50l-245 -520q-23 -49 -45 -84.5t-55 -71.5t-77 -55t-97 -19q-54 0 -87 28t-33 68q0 49 49 90.5t145 56.5q-100 20 -100 123q0 44 18 97.5t51.5 105.5t77 95t99.5 69.5t114 26.5zM489 502q-57 0 -116.5 -43.5t-102.5 -105.5
t-70 -131.5t-27 -121.5q0 -49 26 -75.5t69 -26.5q51 0 105 46t104 148l59 123q26 53 32 94.5t-13.5 67t-65.5 25.5zM381 -20l61 132q-35 -53 -80.5 -87.5t-95.5 -34.5q-108 -10 -163.5 -51.5t-55.5 -91.5q0 -36 31 -62.5t80 -26.5q74 0 119 48t104 174z" />
    <glyph glyph-name="h" unicode="h" horiz-adv-x="590" 
d="M559 510q44 0 65 -19t21 -47t-17 -64l-129 -276q-20 -44 -20 -62q0 -30 30 -30q42 0 116 95v-10q-80 -107 -154 -107q-42 0 -42 44q0 31 19 70l130 276q22 46 22 82q0 40 -43 40q-72 0 -166 -92.5t-140 -191.5l-101 -214l-50 -4v4l345 736h50l-208 -445q60 89 135 152
t137 63z" />
    <glyph glyph-name="i" unicode="i" 
d="M410 650q14 0 21 -7.5t7 -17.5q0 -18 -15 -31.5t-36 -13.5q-27 0 -27 25q0 18 15.5 31.5t34.5 13.5zM326 510q36 0 36 -35q0 -17 -10 -38l-153 -333q-20 -44 -20 -62q0 -30 30 -30q42 0 116 95v-10q-80 -107 -154 -107q-42 0 -42 44q0 31 19 70l152 329q12 24 12 38
q0 20 -18 20q-29 0 -87 -57v10q69 66 119 66z" />
    <glyph glyph-name="j" unicode="j" horiz-adv-x="265" 
d="M408 650q14 0 21 -7.5t7 -17.5q0 -18 -15 -31.5t-36 -13.5q-27 0 -27 25q0 18 15.5 31.5t34.5 13.5zM326 510q36 0 36 -35q0 -17 -10 -38l-227 -487q-47 -101 -88.5 -150.5t-101.5 -49.5q-36 0 -55.5 17.5t-19.5 45.5q0 21 18 21q17 0 17 -19q0 -57 40 -57q32 0 58 36
t82 156l225 483q12 24 12 38q0 20 -18 20q-29 0 -87 -57v10q69 66 119 66z" />
    <glyph glyph-name="k" unicode="k" horiz-adv-x="590" 
d="M496 740l-209 -445q60 89 135 152t137 63q85 0 85 -66q0 -52 -74.5 -105.5t-172.5 -70.5q132 -12 132 -78q0 -25 -25 -79t-25 -69q0 -30 30 -30q41 0 116 95v-10q-80 -107 -154 -107q-42 0 -42 44q0 23 25 80.5t25 75.5q0 38 -26 54t-74 20l2 8q90 12 154.5 73t64.5 111
q0 46 -43 46q-72 0 -166 -92.5t-140 -191.5l-101 -214l-50 -4v4l345 736h51z" />
    <glyph glyph-name="l" unicode="l" 
d="M495 740l-296 -636q-20 -44 -20 -62q0 -30 30 -30q42 0 116 95v-10q-80 -107 -154 -107q-42 0 -42 44q0 29 19 70l297 636h50z" />
    <glyph glyph-name="m" unicode="m" horiz-adv-x="891" 
d="M860 510q44 0 65 -19t21 -47t-17 -64l-129 -276q-20 -44 -20 -62q0 -30 30 -30q42 0 116 95v-10q-80 -107 -154 -107q-42 0 -42 44q0 31 19 70l130 276q22 46 22 82q0 40 -43 40q-72 0 -166 -92.5t-140 -191.5l-100 -214l-50 -4v4l176 376q22 46 22 82q0 40 -43 40
q-72 0 -166 -92.5t-140 -191.5l-101 -214l-50 -4v4l200 429q12 24 12 38q0 20 -18 20q-29 0 -87 -57v10q69 66 119 66q36 0 36 -35q0 -17 -10 -38l-65 -142q60 89 135 152t137 63q44 0 65 -19t21 -47q0 -22 -8 -42.5t-49 -106.5q60 89 135 152t137 63z" />
    <glyph glyph-name="n" unicode="n" horiz-adv-x="590" 
d="M559 510q44 0 65 -19t21 -47t-17 -64l-129 -276q-20 -44 -20 -62q0 -30 30 -30q42 0 116 95v-10q-80 -107 -154 -107q-42 0 -42 44q0 31 19 70l130 276q22 46 22 82q0 40 -43 40q-72 0 -166 -92.5t-140 -191.5l-101 -214l-50 -4v4l200 429q12 24 12 38q0 20 -18 20
q-29 0 -87 -57v10q69 66 119 66q36 0 36 -35q0 -17 -10 -38l-65 -142q60 89 135 152t137 63z" />
    <glyph glyph-name="o" unicode="o" horiz-adv-x="575" 
d="M510 510q71 0 105.5 -32.5t34.5 -89.5q0 -45 -18 -98.5t-53 -106t-80 -96t-105.5 -70.5t-123.5 -27q-71 0 -105.5 32.5t-34.5 88.5t29 124.5t77.5 130t122 103t151.5 41.5zM508 502q-85 0 -165.5 -73.5t-125.5 -167.5t-45 -166q0 -97 100 -97q64 0 128 44t108 107
t72 132.5t28 122.5q0 47 -25.5 72.5t-74.5 25.5z" />
    <glyph glyph-name="p" unicode="p" horiz-adv-x="566" 
d="M506 510q65 0 100 -34t35 -92q0 -44 -18 -97.5t-51.5 -105.5t-77 -95t-99.5 -69.5t-114 -26.5q-55 0 -75 33.5t-8 82.5l-167 -346h-50l319 673q12 24 12 38q0 20 -18 20q-29 0 -87 -57v10q69 66 119 66q36 0 36 -35q0 -19 -32 -87q83 122 176 122zM504 502
q-114 0 -209 -193l-59 -124q-26 -53 -32 -94.5t13.5 -67t65.5 -25.5q57 0 116.5 43.5t102.5 105.5t70 131.5t27 121.5q0 49 -26 75.5t-69 26.5z" />
    <glyph glyph-name="q" unicode="q" horiz-adv-x="555" 
d="M490 510q55 0 75 -33.5t8 -82.5l53 106h50l-351 -740h-50l166 352q-84 -122 -176 -122q-65 0 -100 34t-35 92q0 44 18 97.5t51.5 105.5t77 95t99.5 69.5t114 26.5zM488 502q-57 0 -116.5 -43.5t-102.5 -105.5t-70 -131.5t-27 -121.5q0 -49 26 -75.5t69 -26.5
q51 0 105.5 46t104.5 148l59 123q41 77 31 132t-79 55z" />
    <glyph glyph-name="r" unicode="r" horiz-adv-x="370" 
d="M520 510q30 0 30 -26q0 -13 -9.5 -20t-20.5 -7q-8 0 -26 5t-30 5q-45 0 -106.5 -77t-106.5 -172l-101 -214l-50 -4v4l200 429q12 24 12 38q0 20 -18 20q-30 0 -87 -57v10q66 65 119 65q36 0 36 -34q0 -14 -9.5 -38t-56.5 -123q52 85 112 140.5t112 55.5z" />
    <glyph glyph-name="s" unicode="s" horiz-adv-x="448" 
d="M411 510q58 0 101.5 -22t43.5 -61q0 -13 -9 -18t-17.5 -0.5t-8.5 16.5q0 77 -112 77q-60 0 -102.5 -30.5t-42.5 -77.5q0 -33 21 -58.5t51 -43l60 -34.5t51 -43.5t21 -61.5q0 -55 -35.5 -94t-81.5 -54t-94 -15q-57 0 -110.5 22.5t-53.5 60.5q0 13 8.5 18t17.5 0.5t9 -16.5
q0 -31 24.5 -49.5t50.5 -23t56 -4.5q64 0 116.5 35.5t52.5 89.5q0 34 -21 59.5t-51 43l-60 34.5t-51 44t-21 62q0 68 56 106t131 38z" />
    <glyph glyph-name="t" unicode="t" horiz-adv-x="285" 
d="M373 500h130l-5 -12h-130l-179 -384q-20 -44 -20 -62q0 -30 30 -30q42 0 116 95v-10q-80 -107 -154 -107q-42 0 -42 44q0 28 19 70l180 384h-70l5 12h70l47 100l60 30h4z" />
    <glyph glyph-name="u" unicode="u" horiz-adv-x="590" 
d="M309 510q42 0 42 -44q0 -31 -19 -70l-130 -276q-22 -46 -22 -82q0 -40 43 -40q72 0 166 92.5t140 191.5l101 214l50 4v-4l-182 -392q-20 -44 -20 -62q0 -30 30 -30q42 0 116 95v-10q-80 -107 -154 -107q-42 0 -42 44q0 31 19 70l47 102q-60 -90 -135.5 -153t-137.5 -63
q-44 0 -65 19t-21 47t17 64l129 276q20 44 20 62q0 30 -30 30q-43 0 -116 -95v11q79 106 154 106z" />
    <glyph glyph-name="v" unicode="v" horiz-adv-x="515" 
d="M615 456q0 -67 -67.5 -179t-162.5 -199.5t-164 -87.5q-44 0 -65 19t-21 47t17 64l129 276q20 44 20 62q0 30 -30 30q-41 0 -116 -95v11q79 106 154 106q42 0 42 -44q0 -31 -19 -70l-130 -276q-22 -46 -22 -82q0 -40 43 -40q60 0 148.5 79t151 175t62.5 146q0 21 -12.5 47
t-12.5 40q0 25 25 25q30 0 30 -54z" />
    <glyph glyph-name="w" unicode="w" horiz-adv-x="817" 
d="M309 510q42 0 42 -44q0 -31 -19 -70l-130 -276q-22 -46 -22 -82q0 -40 43 -40q72 0 166 92.5t140 191.5l101 214l50 4v-4l-176 -376q-22 -46 -22 -82q0 -40 43 -40q60 0 148.5 79t151 175t62.5 146q0 21 -12.5 47t-12.5 40q0 25 25 25q30 0 30 -54q0 -67 -67.5 -179
t-162.5 -199.5t-164 -87.5q-44 0 -65 19t-21 47t17 64l40 86q-60 -90 -135.5 -153t-137.5 -63q-44 0 -65 19t-21 47t17 64l129 276q20 44 20 62q0 30 -30 30q-43 0 -116 -95v11q79 106 154 106z" />
    <glyph glyph-name="x" unicode="x" horiz-adv-x="595" 
d="M665 510q42 0 61 -25t19 -58q0 -13 -8.5 -18t-17.5 -0.5t-9 16.5q0 49 -11 63q-10 14 -34 14q-53 0 -122.5 -73t-126.5 -164l25 -203q6 -50 33 -50q41 0 116 95v-10q-80 -107 -154 -107q-21 0 -30 15.5t-13 48.5l-21 168q-56 -89 -126.5 -160.5t-124.5 -71.5
q-42 0 -61 25t-19 58q0 13 8.5 18t17.5 0.5t9 -16.5q0 -49 11 -63q10 -14 34 -14q53 0 123.5 73t126.5 164l-25 203q-6 50 -33 50q-41 0 -116 -95v11q79 106 154 106q21 0 30 -15.5t13 -48.5l20 -166q57 89 127 159.5t124 70.5z" />
    <glyph glyph-name="y" unicode="y" horiz-adv-x="540" 
d="M587 510q30 0 30 -54t-74.5 -154.5t-257.5 -313.5q-205 -238 -314 -238q-61 0 -88 25t-27 58q0 21 18 21q17 0 17 -19q0 -43 17 -60t63 -17q111 0 309 233l31 447q4 50 -28 50q-41 0 -116 -95v11q80 106 154 106q20 0 33.5 -17.5t11.5 -46.5l-29 -387l13 15
q239 280 239 331q0 21 -13.5 43.5t-13.5 36.5q0 25 25 25z" />
    <glyph glyph-name="z" unicode="z" horiz-adv-x="460" 
d="M442 128q17 0 30 -24t13 -51q0 -37 -26 -65t-77 -28q-33 0 -109.5 34.5t-133.5 34.5q-43 0 -63 -17l-18 -16l-6 4l263 232h-116l5 12h125l216 191q-12 -11 -55 -11q-26 0 -100 21t-87 21q-23 0 -36 -12.5t-33 -53.5h-8q34 72 53 91t49 19q16 0 92 -22t113 -22q46 0 73 23
l18 15l6 -4l-290 -256h125l-5 -12h-134l-186 -164q16 4 35 4q46 0 128.5 -36t120.5 -36q20 0 35 9.5t15 26.5t-13.5 28t-27 20.5t-13.5 22.5q0 9 6.5 15t15.5 6z" />
    <glyph glyph-name="braceleft" unicode="{" horiz-adv-x="370" 
d="M448 640q70 150 240 150l-3 -8q-61 0 -102.5 -25.5t-79.5 -106.5q-10 -20 -37.5 -90t-36.5 -90q-26 -56 -77.5 -85.5t-93.5 -34.5q26 -4 49 -21.5t23 -49.5q0 -39 -33 -97.5l-65.5 -116.5t-32.5 -98q0 -29 21 -39t62 -10l-4 -8q-121 0 -121 74q0 34 21 79.5t45.5 82.5
t45.5 81.5t21 77.5q0 41 -59 41l4 8q51 0 84 28.5t62 92.5q11 24 35 85.5t32 79.5z" />
    <glyph glyph-name="bar" unicode="|" horiz-adv-x="172" 
d="M51 -90h-13l409 880h13z" />
    <glyph glyph-name="braceright" unicode="}" horiz-adv-x="370" 
d="M407 395q0 -41 58 -41l-4 -8q-51 0 -83.5 -28t-62.5 -93q-11 -23 -34.5 -84t-32.5 -81q-70 -150 -240 -150l4 8q61 0 102.5 25.5t78.5 106.5q10 22 38 92t36 88q18 39 54 67t64.5 39t52.5 14q-26 4 -48.5 21.5t-22.5 50.5q0 42 65.5 153.5t65.5 157.5q0 29 -21 39t-62 10
l3 8q121 0 121 -74q0 -43 -33 -103.5l-66 -119t-33 -98.5z" />
    <glyph glyph-name="asciitilde" unicode="~" horiz-adv-x="380" 
d="M458 291h8q-18 -38 -47 -59.5t-59 -21.5q-25 0 -66 23t-64 23q-53 0 -74 -46h-8q18 38 47.5 59.5t62.5 21.5q26 0 63.5 -23t61.5 -23q54 0 75 46z" />
    <glyph glyph-name="exclamdown" unicode="&#xa1;" 
d="M355 440q-14 0 -21 7.5t-7 17.5q0 18 15 31.5t36 13.5q27 0 27 -25q0 -18 -15.5 -31.5t-34.5 -13.5zM28 -250q-19 0 -19 16q0 9 51 107l124.5 238t110.5 219h8q-49 -105 -137 -321t-94 -229q-14 -30 -44 -30z" />
    <glyph glyph-name="cent" unicode="&#xa2;" horiz-adv-x="500" 
d="M557 590l-38 -83q43 -7 62 -30t19 -50q0 -13 -9 -18t-17.5 -0.5t-8.5 16.5q0 35 -11 52.5t-39 22.5l-233 -500q94 8 167 109v-10q-75 -102 -172 -109l-37 -80h-12l37 80q-66 0 -100.5 35t-34.5 98q0 56 31 124.5t79.5 126.5t114.5 97t130 39q15 0 22 -1l38 81h12z
M504 501l-19 1q-64 0 -137.5 -65t-123 -160.5t-49.5 -177.5q0 -100 90 -100h5z" />
    <glyph glyph-name="sterling" unicode="&#xa3;" horiz-adv-x="550" 
d="M797 700l-81 -175h-8l2 10q11 41 11 69q0 98 -105 98q-153 0 -220 -143q-15 -32 -22.5 -71.5t-8.5 -58t-3 -65.5h188l-8 -16h-180q-4 -73 -26 -120q-38 -84 -175 -165l-22 -13h246q62 0 93 15t56 69l14 30h8l-76 -164h-430l4 8l107 62q85 49 118 120q23 50 27 158h-94
l8 16h86q4 109 31 166q39 83 115 131.5t168 48.5q32 0 56.5 -10t36.5 -22.5l22.5 -22.5t17.5 -10q11 0 18 15l18 40h8z" />
    <glyph glyph-name="currency" unicode="&#xa4;" horiz-adv-x="790" 
d="M1046 700l-81 -175h-8l2 10q8 28 8 55q0 112 -170 112q-116 0 -227.5 -76t-187.5 -191h161l-6 -12h-163q-49 -77 -69 -148h163l-5 -12h-161q-12 -43 -12 -85q0 -83 47.5 -131.5t131.5 -48.5q207 0 318 167l7 10h8l-82 -175h-8l19 40q3 6 3 9q0 6 -7 6q-6 0 -44.5 -16.5
t-98.5 -32.5t-119 -16q-104 0 -163 54t-59 145q0 37 9 74h-79l5 12h77q19 72 68 148h-76l6 12h78q81 118 208.5 196.5t261.5 78.5q46 0 84.5 -10t58 -22.5l35.5 -22.5t23 -10q11 0 18 15l18 40h8z" />
    <glyph glyph-name="yen" unicode="&#xa5;" horiz-adv-x="670" 
d="M983 692h-25q-43 0 -75 -30l-383 -367h120l-5 -12h-123l-114 -245q-7 -14 -7 -21q0 -9 23 -9h40l-4 -8h-190l4 8h40q20 0 27.5 5.5t16.5 24.5l114 245h-137l5 12h137l-39 367q-2 18 -9.5 24t-27.5 6h-38l3 8h223l-3 -8h-70q-21 0 -26 -6.5t-3 -23.5l36 -362l376 359
q19 19 19 26t-18 7h-72l3 8h185z" />
    <glyph glyph-name="brokenbar" unicode="&#xa6;" horiz-adv-x="172" 
d="M284 410h-13l176 380h13zM51 -90h-13l176 380h13z" />
    <glyph glyph-name="section" unicode="&#xa7;" horiz-adv-x="550" 
d="M747 610h-8l2 10q11 42 11 73q0 43 -46.5 68.5t-106.5 25.5q-45 0 -80.5 -11t-56 -27.5t-34 -38.5t-18 -42t-4.5 -41q0 -36 23.5 -63t57 -45.5l66.5 -38t56.5 -51t23.5 -74.5q0 -64 -45.5 -117t-125.5 -77q24 -32 24 -75q0 -80 -65.5 -133.5t-175.5 -53.5
q-45 0 -84.5 16.5t-63.5 32.5t-34 16q-11 0 -18 -15l-19 -40h-8l81 175h8l-2 -10q-11 -42 -11 -73q0 -43 48 -68.5t105 -25.5q45 0 80.5 11t56 27.5t34 38.5t18 42t4.5 41q0 42 -23.5 73t-57 50l-66.5 37.5t-56.5 46.5t-23.5 65q0 66 47.5 120.5t129.5 76.5q-30 32 -30 72
q0 80 65.5 133.5t175.5 53.5q48 0 87 -16.5t63 -32.5t33 -16q11 0 18 15l18 40h8zM587 334q0 40 -21.5 71t-49 47l-64.5 38.5t-56 39.5q-70 -21 -103.5 -70.5t-33.5 -99.5q0 -45 34.5 -75.5t87.5 -60t75 -56.5q67 22 99 70t32 96z" />
    <glyph glyph-name="dieresis" unicode="&#xa8;" horiz-adv-x="350" 
d="M393 650q14 0 21 -7.5t7 -17.5q0 -18 -15 -31.5t-36 -13.5q-27 0 -27 25q0 18 15.5 31.5t34.5 13.5zM553 650q14 0 21 -7.5t7 -17.5q0 -18 -15 -31.5t-36 -13.5q-27 0 -27 25q0 18 15.5 31.5t34.5 13.5z" />
    <glyph glyph-name="copyright" unicode="&#xa9;" horiz-adv-x="820" 
d="M741 710q107 0 168 -57t61 -151q0 -82 -49 -173.5t-126 -166t-182 -123.5t-208 -49q-107 0 -168 57t-61 151q0 82 49 173.5t126 166t182 123.5t208 49zM735 698q-99 0 -201 -48.5t-176.5 -121t-121.5 -160t-47 -164.5q0 -91 59.5 -146.5t162.5 -55.5q101 0 203 48.5
t176 121.5t120.5 161t46.5 164q0 90 -59.5 145.5t-162.5 55.5zM683 566q31 0 57 -9t40.5 -18t18.5 -9q7 0 11 9l10 21h8l-51 -110h-8l1 6q3 15 3 28q0 74 -94 74q-53 0 -106.5 -33t-92 -81.5t-63 -104.5t-24.5 -100q0 -45 24 -71t68 -26q109 0 186 102l5 6h8l-52 -110h-8
l10 21q4 9 -3 9q-4 0 -27 -9t-57 -18t-65 -9q-63 0 -99.5 32.5t-36.5 87.5q0 67 47.5 139.5t127 122.5t162.5 50z" />
    <glyph glyph-name="ordfeminine" unicode="&#xaa;" horiz-adv-x="420" 
d="M484 700q38 0 51.5 -23t5.5 -57l36 73h34l-128 -271q-13 -28 -13 -42q0 -20 20 -20q29 0 79 65v-7q-53 -73 -105 -73q-29 0 -29 30q0 20 16 53q-57 -83 -120 -83q-45 0 -68.5 23t-23.5 62q0 52 32 114.5t90.5 109t122.5 46.5zM483 694q-52 0 -103.5 -49t-82 -113
t-30.5 -112q0 -34 18 -52t47 -18q79 0 143 132l40 85q29 53 22 90t-54 37zM504 288h-320l6 12h320z" />
    <glyph glyph-name="guillemetleft" unicode="&#xab;" horiz-adv-x="570" 
d="M522 455l-2 -4q-108 -120 -282 -202q97 -81 94 -202l-2 -4q-50 138 -175 203l3 6q183 64 364 203zM742 455l-2 -4q-108 -120 -282 -202q97 -81 94 -202l-2 -4q-50 138 -175 203l3 6q183 64 364 203z" />
    <glyph glyph-name="logicalnot" unicode="&#xac;" horiz-adv-x="390" 
d="M388 104h-13l65 139h-277l6 12h290z" />
    <glyph glyph-name="softhyphen" unicode="&#xad;" horiz-adv-x="390" 
d="M453 243h-290l6 12h290z" />
    <glyph glyph-name="registered" unicode="&#xae;" horiz-adv-x="820" 
d="M741 710q107 0 168 -57t61 -151q0 -82 -49 -173.5t-126 -166t-182 -123.5t-208 -49q-107 0 -168 57t-61 151q0 82 49 173.5t126 166t182 123.5t208 49zM411 2q101 0 203 48.5t176 121.5t120.5 161t46.5 164q0 90 -59.5 145.5t-162.5 55.5q-99 0 -201 -48.5t-176.5 -121
t-121.5 -160t-47 -164.5q0 -91 59.5 -146.5t162.5 -55.5zM504 560h176q101 0 101 -63q0 -54 -48.5 -103.5t-126.5 -61.5q56 -13 56 -64q0 -10 -7.5 -43t-7.5 -47q0 -33 34 -33q3 0 6.5 0.5t8.5 1.5t8 1l-4 -8q-32 -6 -51 -6q-52 0 -52 48q0 15 7 52t7 51q0 26 -11.5 35
t-38.5 9h-76l-75 -163q-4 -8 -4 -12q0 -6 13 -6h20l-4 -8h-127l4 8h21q19 0 27 18l171 368q4 8 4 12q0 6 -13 6h-21zM489 337h80q67 0 116.5 57.5t49.5 113.5q0 44 -65 44h-80z" />
    <glyph glyph-name="macron" unicode="&#xaf;" horiz-adv-x="370" 
d="M590 600h-250l5 12h250z" />
    <glyph glyph-name="degree" unicode="&#xb0;" 
d="M476 710q32 0 50 -16t18 -43q0 -50 -52 -100.5t-114 -50.5q-32 0 -50 16t-18 43q0 50 52 100.5t114 50.5zM470 698q-53 0 -100 -48.5t-47 -87.5q0 -23 16 -36.5t45 -13.5q53 0 100 48.5t47 87.5q0 23 -16 36.5t-45 13.5z" />
    <glyph glyph-name="plusminus" unicode="&#xb1;" horiz-adv-x="390" 
d="M501 345l-6 -12h-138l-65 -139h-13l65 139h-139l6 12h138l65 139h13l-65 -139h139zM90 85h290l-6 -12h-290z" />
    <glyph glyph-name="twosuperior" unicode="&#xb2;" horiz-adv-x="285" 
d="M509 805q79 0 79 -53q0 -20 -7 -39t-26.5 -40.5t-36 -36.5t-55 -41l-62.5 -41.5l-77 -48.5l-26 -16h115q36 0 52 7t28 32l6 13h4l-43 -91h-225l2 4l87 55q228 139 228 253q0 39 -45 39q-26 0 -45 -11t-25 -20t-14 -24q-7 -18 -27 -18q-12 0 -12 10q0 20 41.5 43.5
t83.5 23.5z" />
    <glyph glyph-name="threesuperior" unicode="&#xb3;" horiz-adv-x="286" 
d="M506 805q84 0 84 -49q0 -45 -49.5 -80t-114.5 -44q36 -3 63 -18t27 -44q0 -48 -53.5 -86.5t-124.5 -38.5q-34 0 -54.5 14t-20.5 32q0 11 8 21t21 10t13 -10q0 -3 -5 -15.5t-5 -20.5q0 -27 45 -27q60 0 99 43t39 88q0 48 -75 50q-7 -1 -15.5 -2.5t-12.5 -1.5q-5 0 -5 3
q0 8 11 8q3 0 10 -1.5t14 -1.5q62 1 106 40t44 87q0 40 -51 40q-26 0 -44 -11t-23.5 -19.5t-13.5 -24.5q-7 -18 -27 -18q-12 0 -12 10q0 20 40 43.5t82 23.5z" />
    <glyph glyph-name="acute" unicode="&#xb4;" 
d="M527 700q20 0 20 -21q0 -14 -13.5 -28t-43 -28.5l-51.5 -24.5t-64.5 -26l-57.5 -22v6q51 22 82 43t62 55q42 46 66 46z" />
    <glyph glyph-name="paragraph" unicode="&#xb6;" horiz-adv-x="640" 
d="M913 692h-48l-319 -684h48l-4 -8h-185q-113 0 -178.5 49t-65.5 140q0 87 47.5 179t124.5 165t183.5 120t214.5 47h185zM728 692l-319 -684h129l319 684h-129z" />
    <glyph glyph-name="periodcentered" unicode="&#xb7;" horiz-adv-x="180" 
d="M216 288q14 0 21 -7.5t7 -17.5q0 -18 -15 -31.5t-36 -13.5q-27 0 -27 25q0 18 15.5 31.5t34.5 13.5z" />
    <glyph glyph-name="cedilla" unicode="&#xb8;" horiz-adv-x="260" 
d="M110 0l-27 -58q32 -1 52.5 -16t20.5 -44q0 -40 -40.5 -66t-98.5 -26q-37 0 -59 12l5 8q20 -12 54 -12q51 0 80 24.5t29 58.5q0 54 -55 53l31 66h8z" />
    <glyph glyph-name="onesuperior" unicode="&#xb9;" horiz-adv-x="195" 
d="M493 805l-156 -336q-5 -10 -3.5 -12.5t11.5 -2.5h37l-2 -4h-145l2 4h38q10 0 14 2.5t8 12.5l138 297q4 8 2.5 10.5t-11.5 1.5q-16 -2 -39 -2l2 4q73 0 100 25h4z" />
    <glyph glyph-name="ordmasculine" unicode="&#xba;" horiz-adv-x="420" 
d="M540 707q99 0 99 -86q0 -54 -34 -117.5t-98.5 -112t-136.5 -48.5q-99 0 -99 85q0 54 34 117.5t98 112.5t137 49zM537 702q-58 0 -113.5 -52.5t-87 -119t-31.5 -115.5q0 -67 67 -67q58 0 114 52.5t87.5 119t31.5 115.5q0 67 -68 67zM504 288h-320l6 12h320z" />
    <glyph glyph-name="guillemetright" unicode="&#xbb;" horiz-adv-x="570" 
d="M250 451l2 4q50 -138 176 -203l-3 -6q-184 -64 -365 -203l2 4q108 120 282 202q-97 81 -94 202zM470 451l2 4q50 -138 176 -203l-3 -6q-184 -64 -365 -203l2 4q108 120 282 202q-97 81 -94 202z" />
    <glyph glyph-name="onequarter" unicode="&#xbc;" horiz-adv-x="635" 
d="M333 350h-145l2 4h38q10 0 14 2.5t8 12.5l139 297q4 8 2 10.5t-12 1.5q-14 -2 -39 -2l2 4q73 0 101 25h4l-157 -336q-5 -10 -3.5 -12.5t11.5 -2.5h37zM791 700l-630 -700h-16l630 700h16zM725 356l-120 -257h52l-2 -4h-52l-35 -75q-4 -10 -4 -11q0 -4 12 -4h37l-2 -4
h-145l2 4h38q10 0 14 2.5t8 12.5l35 75h-158l2 4l314 257h4zM565 99l95 202l-246 -202h151z" />
    <glyph glyph-name="onehalf" unicode="&#xbd;" horiz-adv-x="680" 
d="M447 705l-157 -336q-5 -10 -3.5 -12.5t11.5 -2.5h37l-2 -4h-145l2 4h38q10 0 14 2.5t8 12.5l139 297q4 8 2 10.5t-12 1.5q-14 -2 -39 -2l2 4q73 0 101 25h4zM161 0h-16l630 700h16zM694 355q79 0 79 -53q0 -20 -7 -39t-26.5 -40.5t-36 -36.5t-55 -41l-62.5 -41.5
l-77 -48.5l-26 -16h115q36 0 52 7t28 32l6 13h4l-43 -91h-225l2 4l87 55q228 139 228 253q0 39 -45 39q-26 0 -45 -11t-25 -20t-14 -24q-7 -18 -27 -18q-12 0 -12 10q0 20 41.5 43.5t83.5 23.5z" />
    <glyph glyph-name="threequarters" unicode="&#xbe;" horiz-adv-x="706" 
d="M291 345q-34 0 -54.5 14t-20.5 32q0 11 8 21t21 10t13 -10q0 -3 -5 -15.5t-5 -20.5q0 -27 45 -27q60 0 99 43t39 88q0 48 -75 50q-7 -1 -15.5 -2.5t-12.5 -1.5q-5 0 -5 3q0 8 11 8q3 0 10 -1.5t14 -1.5q62 1 106 40t44 87q0 40 -51 40q-26 0 -44 -11t-23.5 -19.5
t-13.5 -24.5q-7 -18 -27 -18q-12 0 -12 10q0 20 40 43.5t82 23.5q84 0 84 -49q0 -45 -49.5 -80t-114.5 -44q36 -3 63 -18t27 -44q0 -48 -53.5 -86.5t-124.5 -38.5zM862 700l-630 -700h-16l630 700h16zM796 356l-120 -257h52l-2 -4h-52l-35 -75q-4 -10 -4 -11q0 -4 12 -4h37
l-2 -4h-145l2 4h38q10 0 14 2.5t8 12.5l35 75h-158l2 4l314 257h4zM636 99l95 202l-246 -202h151z" />
    <glyph glyph-name="questiondown" unicode="&#xbf;" horiz-adv-x="495" 
d="M515 440q-14 0 -21 7.5t-7 17.5q0 18 15 31.5t36 13.5q27 0 27 -25q0 -18 -15.5 -31.5t-34.5 -13.5zM148 -250q-65 0 -102.5 30t-37.5 80q0 60 39 114t98 96t120.5 81t116 86t74.5 93h12q-14 -38 -62.5 -82.5t-106 -87.5t-113.5 -90t-93.5 -107t-37.5 -122q0 -83 99 -83
q48 0 83.5 13.5t54 33t32 39t26.5 33t29 13.5t16 -13q0 -35 -81 -81t-166 -46z" />
    <glyph glyph-name="Agrave" unicode="&#xc0;" horiz-adv-x="710" 
d="M702 854q0 -35 11 -56t41 -42l-4 -6q-6 4 -26 16t-32.5 20.5t-27.5 21.5t-23 27t-8 28q0 15 9.5 26t25.5 11q13 0 23.5 -10.5t10.5 -35.5zM679 705l-33 -667q-1 -19 5 -24.5t27 -5.5h31l-4 -8h-193l4 8h52q16 0 22 6.5t7 23.5l10 195h-330l-166 -193q-14 -17 -14 -24
q0 -8 14 -8h58l-4 -8h-160l4 8h35q20 0 28.5 4.5t26.5 25.5l572 667h8zM629 644l-346 -403h324z" />
    <glyph glyph-name="Aacute" unicode="&#xc1;" horiz-adv-x="710" 
d="M872 900q20 0 20 -21q0 -14 -13.5 -28t-43 -28.5l-51.5 -24.5t-64.5 -26l-57.5 -22v6q51 22 82 43t62 55q42 46 66 46zM679 705l-33 -667q-1 -19 5 -24.5t27 -5.5h31l-4 -8h-193l4 8h52q16 0 22 6.5t7 23.5l10 195h-330l-166 -193q-14 -17 -14 -24q0 -8 14 -8h58l-4 -8
h-160l4 8h35q20 0 28.5 4.5t26.5 25.5l572 667h8zM629 644l-346 -403h324z" />
    <glyph glyph-name="Acircumflex" unicode="&#xc2;" horiz-adv-x="710" 
d="M761 900h9q6 -34 29.5 -80.5t50.5 -66.5l-5 -5q-67 36 -100 87q-54 -34 -198 -87l-1 8q47 20 113 65.5t102 78.5zM679 705l-33 -667q-1 -19 5 -24.5t27 -5.5h31l-4 -8h-193l4 8h52q16 0 22 6.5t7 23.5l10 195h-330l-166 -193q-14 -17 -14 -24q0 -8 14 -8h58l-4 -8h-160
l4 8h35q20 0 28.5 4.5t26.5 25.5l572 667h8zM629 644l-346 -403h324z" />
    <glyph glyph-name="Atilde" unicode="&#xc3;" horiz-adv-x="710" 
d="M879 861h8q-18 -38 -46.5 -59.5t-59.5 -21.5q-25 0 -65.5 23t-63.5 23q-52 0 -75 -46h-8q18 38 47.5 59.5t62.5 21.5q26 0 64 -23t62 -23q53 0 74 46zM679 705l-33 -667q-1 -19 5 -24.5t27 -5.5h31l-4 -8h-193l4 8h52q16 0 22 6.5t7 23.5l10 195h-330l-166 -193
q-14 -17 -14 -24q0 -8 14 -8h58l-4 -8h-160l4 8h35q20 0 28.5 4.5t26.5 25.5l572 667h8zM629 644l-346 -403h324z" />
    <glyph glyph-name="Adieresis" unicode="&#xc4;" horiz-adv-x="710" 
d="M634 780q-27 0 -27 25q0 18 15.5 31.5t34.5 13.5q14 0 21 -7.5t7 -17.5q0 -18 -15 -31.5t-36 -13.5zM817 850q14 0 21 -7.5t7 -17.5q0 -18 -15 -31.5t-36 -13.5q-27 0 -27 25q0 18 15.5 31.5t34.5 13.5zM679 705l-33 -667q-1 -19 5 -24.5t27 -5.5h31l-4 -8h-193l4 8h52
q16 0 22 6.5t7 23.5l10 195h-330l-166 -193q-14 -17 -14 -24q0 -8 14 -8h58l-4 -8h-160l4 8h35q20 0 28.5 4.5t26.5 25.5l572 667h8zM629 644l-346 -403h324z" />
    <glyph glyph-name="Aring" unicode="&#xc5;" horiz-adv-x="710" 
d="M788 980q39 0 61 -22t22 -57q0 -55 -45.5 -93t-110.5 -38q-39 0 -61 22t-22 57q0 55 45.5 93t110.5 38zM721 782q56 0 96.5 35t40.5 81q0 70 -76 70q-56 0 -96.5 -35t-40.5 -81q0 -70 76 -70zM679 705l-33 -667q-1 -19 5 -24.5t27 -5.5h31l-4 -8h-193l4 8h52q16 0 22 6.5
t7 23.5l10 195h-330l-166 -193q-14 -17 -14 -24q0 -8 14 -8h58l-4 -8h-160l4 8h35q20 0 28.5 4.5t26.5 25.5l572 667h8zM629 644l-346 -403h324z" />
    <glyph glyph-name="AE" unicode="&#xc6;" horiz-adv-x="995" 
d="M1226 700l-76 -164h-8l14 30q21 43 21 74q0 52 -68 52h-236q-20 0 -27.5 -5.5t-16.5 -24.5l-140 -300h166q106 0 147 88l14 30h8l-114 -244h-8l14 30q12 25 12 43q0 45 -77 45h-166l-147 -316q-7 -14 -7 -21q0 -9 23 -9h261q106 0 164 126l14 30h8l-76 -164h-525l4 8h40
q20 0 27.5 5.5t16.5 24.5l91 195h-256l-202 -195q-15 -15 -15 -22q0 -8 16 -8h57l-4 -8h-170l4 8h36q21 0 32.5 5.5t32.5 24.5l686 662h430zM583 241l203 438l-454 -438h251z" />
    <glyph glyph-name="Ccedilla" unicode="&#xc7;" horiz-adv-x="740" 
d="M996 700l-81 -175h-8l2 10q8 28 8 55q0 112 -170 112q-93 0 -187.5 -52.5t-163.5 -130.5t-112.5 -170.5t-43.5 -170.5q0 -83 47.5 -131.5t131.5 -48.5q207 0 318 167l7 10h8l-82 -175h-8l19 40q3 6 3 9q0 6 -7 6t-44.5 -16t-96.5 -32.5t-117 -16.5l-25 -54
q32 -1 52.5 -16t20.5 -44q0 -40 -40.5 -66t-98.5 -26q-36 0 -59 12l6 8q20 -12 53 -12q51 0 80 24.5t29 58.5q0 54 -55 53l29 62q-102 1 -160 54.5t-58 144.5q0 84 47.5 177t123.5 168.5t180 125.5t207 50q46 0 84.5 -10t58 -22.5l35.5 -22.5t23 -10q11 0 18 15l18 40h8z
" />
    <glyph glyph-name="Egrave" unicode="&#xc8;" horiz-adv-x="645" 
d="M738 756l-4 -6q-6 4 -26 16t-32.5 20.5t-27.5 21.5t-23 27t-8 28q0 15 9.5 26t25.5 11q13 0 23.5 -10.5t10.5 -35.5q0 -35 11 -56t41 -42zM876 700l-76 -164h-8l14 30q21 43 21 74q0 52 -68 52h-236q-20 0 -27.5 -5.5t-16.5 -24.5l-140 -300h166q106 0 147 88l14 30h8
l-114 -244h-8l14 30q12 25 12 43q0 45 -77 45h-166l-147 -316q-7 -14 -7 -21q0 -9 23 -9h261q106 0 164 126l14 30h8l-76 -164h-525l4 8h40q20 0 27.5 5.5t16.5 24.5l291 624q7 14 7 21q0 9 -23 9h-40l3 8h500z" />
    <glyph glyph-name="Eacute" unicode="&#xc9;" horiz-adv-x="645" 
d="M876 879q0 -14 -13.5 -28t-43 -28.5l-51.5 -24.5t-64.5 -26l-57.5 -22v6q51 22 82 43t62 55q42 46 66 46q20 0 20 -21zM376 700h500l-76 -164h-8l14 30q21 43 21 74q0 52 -68 52h-236q-20 0 -27.5 -5.5t-16.5 -24.5l-140 -300h166q106 0 147 88l14 30h8l-114 -244h-8
l14 30q12 25 12 43q0 45 -77 45h-166l-147 -316q-7 -14 -7 -21q0 -9 23 -9h261q106 0 164 126l14 30h8l-76 -164h-525l4 8h40q20 0 27.5 5.5t16.5 24.5l291 624q7 14 7 21q0 9 -23 9h-40z" />
    <glyph glyph-name="Ecircumflex" unicode="&#xca;" horiz-adv-x="645" 
d="M729 835q-54 -34 -198 -87l-1 8q47 20 113 65.5t102 78.5h9q6 -34 29.5 -80.5t50.5 -66.5l-5 -5q-67 36 -100 87zM876 700l-76 -164h-8l14 30q21 43 21 74q0 52 -68 52h-236q-20 0 -27.5 -5.5t-16.5 -24.5l-140 -300h166q106 0 147 88l14 30h8l-114 -244h-8l14 30
q12 25 12 43q0 45 -77 45h-166l-147 -316q-7 -14 -7 -21q0 -9 23 -9h261q106 0 164 126l14 30h8l-76 -164h-525l4 8h40q20 0 27.5 5.5t16.5 24.5l291 624q7 14 7 21q0 9 -23 9h-40l3 8h500z" />
    <glyph glyph-name="Edieresis" unicode="&#xcb;" horiz-adv-x="645" 
d="M618 780q-27 0 -27 25q0 18 15.5 31.5t34.5 13.5q14 0 21 -7.5t7 -17.5q0 -18 -15 -31.5t-36 -13.5zM778 780q-27 0 -27 25q0 18 15.5 31.5t34.5 13.5q14 0 21 -7.5t7 -17.5q0 -18 -15 -31.5t-36 -13.5zM876 700l-76 -164h-8l14 30q21 43 21 74q0 52 -68 52h-236
q-20 0 -27.5 -5.5t-16.5 -24.5l-140 -300h166q106 0 147 88l14 30h8l-114 -244h-8l14 30q12 25 12 43q0 45 -77 45h-166l-147 -316q-7 -14 -7 -21q0 -9 23 -9h261q106 0 164 126l14 30h8l-76 -164h-525l4 8h40q20 0 27.5 5.5t16.5 24.5l291 624q7 14 7 21q0 9 -23 9h-40l3 8
h500z" />
    <glyph glyph-name="Igrave" unicode="&#xcc;" 
d="M467 900q13 0 23.5 -10.5t10.5 -35.5q0 -35 11 -56t41 -42l-4 -6q-6 4 -26 16t-32.5 20.5t-27.5 21.5t-23 27t-8 28q0 15 9.5 26t25.5 11zM563 692h-40q-20 0 -27.5 -5.5t-16.5 -24.5l-291 -624q-7 -14 -7 -21q0 -9 23 -9h40l-4 -8h-190l4 8h40q20 0 27.5 5.5t16.5 24.5
l291 624q7 14 7 21q0 9 -23 9h-40l3 8h190z" />
    <glyph glyph-name="Iacute" unicode="&#xcd;" 
d="M671 900q20 0 20 -21q0 -14 -13.5 -28t-43 -28.5l-51.5 -24.5t-64.5 -26l-57.5 -22v6q51 22 82 43t62 55q42 46 66 46zM563 692h-40q-20 0 -27.5 -5.5t-16.5 -24.5l-291 -624q-7 -14 -7 -21q0 -9 23 -9h40l-4 -8h-190l4 8h40q20 0 27.5 5.5t16.5 24.5l291 624q7 14 7 21
q0 9 -23 9h-40l3 8h190z" />
    <glyph glyph-name="Icircumflex" unicode="&#xce;" 
d="M560 900h9q6 -34 29.5 -80.5t50.5 -66.5l-5 -5q-67 36 -100 87q-54 -34 -198 -87l-1 8q47 20 113 65.5t102 78.5zM563 692h-40q-20 0 -27.5 -5.5t-16.5 -24.5l-291 -624q-7 -14 -7 -21q0 -9 23 -9h40l-4 -8h-190l4 8h40q20 0 27.5 5.5t16.5 24.5l291 624q7 14 7 21
q0 9 -23 9h-40l3 8h190z" />
    <glyph glyph-name="Idieresis" unicode="&#xcf;" 
d="M456 850q14 0 21 -7.5t7 -17.5q0 -18 -15 -31.5t-36 -13.5q-27 0 -27 25q0 18 15.5 31.5t34.5 13.5zM616 850q14 0 21 -7.5t7 -17.5q0 -18 -15 -31.5t-36 -13.5q-27 0 -27 25q0 18 15.5 31.5t34.5 13.5zM563 692h-40q-20 0 -27.5 -5.5t-16.5 -24.5l-291 -624
q-7 -14 -7 -21q0 -9 23 -9h40l-4 -8h-190l4 8h40q20 0 27.5 5.5t16.5 24.5l291 624q7 14 7 21q0 9 -23 9h-40l3 8h190z" />
    <glyph glyph-name="Eth" unicode="&#xd0;" horiz-adv-x="770" 
d="M376 700h300q105 0 166 -52t61 -142q0 -82 -47 -172.5t-122.5 -164t-178.5 -121.5t-205 -48h-300l4 8h40q20 0 27.5 5.5t16.5 24.5l143 306h-71l6 12h70l143 306q7 14 7 21q0 9 -23 9h-40zM204 8h150q92 0 186 50.5t162.5 126.5t111.5 166t43 167q0 81 -49 127.5
t-135 46.5h-150q-20 0 -27.5 -5.5t-16.5 -24.5l-143 -306h170l-6 -12h-169l-143 -306q-7 -14 -7 -21q0 -9 23 -9z" />
    <glyph glyph-name="Ntilde" unicode="&#xd1;" horiz-adv-x="730" 
d="M898 861h8q-18 -38 -47 -59.5t-59 -21.5q-25 0 -65.5 23t-63.5 23q-52 0 -75 -46h-8q18 38 47.5 59.5t62.5 21.5q26 0 64 -23t62 -23q53 0 74 46zM1013 692h-38q-20 -1 -27.5 -6t-16.5 -24l-309 -667h-8l-186 670l-294 -627q-7 -14 -7 -21q0 -9 23 -9h40l-4 -8h-146l4 8
h38q20 0 27.5 5.5t16.5 24.5l291 624q7 14 7 21q0 9 -23 9h-38l3 8h102l178 -637l277 599q7 14 7 21q0 9 -23 9h-38l3 8h144z" />
    <glyph glyph-name="Ograve" unicode="&#xd2;" horiz-adv-x="840" 
d="M742 900q13 0 23.5 -10.5t10.5 -35.5q0 -35 11 -56t41 -42l-4 -6q-6 4 -26 16t-32.5 20.5t-27.5 21.5t-23 27t-8 28q0 15 9.5 26t25.5 11zM751 710q104 0 163.5 -54t59.5 -145q0 -82 -48 -175t-124.5 -169.5t-180.5 -126.5t-206 -50q-104 0 -163 54t-59 145
q0 84 47.5 177t123.5 168.5t180 125.5t207 50zM747 702q-93 0 -187.5 -52.5t-163.5 -130.5t-112.5 -170.5t-43.5 -170.5q0 -83 47.5 -131.5t131.5 -48.5q93 0 188 53t164 131.5t112.5 171t43.5 169.5q0 83 -47.5 131t-132.5 48z" />
    <glyph glyph-name="Oacute" unicode="&#xd3;" horiz-adv-x="840" 
d="M946 900q20 0 20 -21q0 -14 -13.5 -28t-43 -28.5l-51.5 -24.5t-64.5 -26l-57.5 -22v6q51 22 82 43t62 55q42 46 66 46zM751 710q104 0 163.5 -54t59.5 -145q0 -82 -48 -175t-124.5 -169.5t-180.5 -126.5t-206 -50q-104 0 -163 54t-59 145q0 84 47.5 177t123.5 168.5
t180 125.5t207 50zM747 702q-93 0 -187.5 -52.5t-163.5 -130.5t-112.5 -170.5t-43.5 -170.5q0 -83 47.5 -131.5t131.5 -48.5q93 0 188 53t164 131.5t112.5 171t43.5 169.5q0 83 -47.5 131t-132.5 48z" />
    <glyph glyph-name="Ocircumflex" unicode="&#xd4;" horiz-adv-x="840" 
d="M835 900h9q6 -34 29.5 -80.5t50.5 -66.5l-5 -5q-67 36 -100 87q-54 -34 -198 -87l-1 8q47 20 113 65.5t102 78.5zM751 710q104 0 163.5 -54t59.5 -145q0 -82 -48 -175t-124.5 -169.5t-180.5 -126.5t-206 -50q-104 0 -163 54t-59 145q0 84 47.5 177t123.5 168.5t180 125.5
t207 50zM747 702q-93 0 -187.5 -52.5t-163.5 -130.5t-112.5 -170.5t-43.5 -170.5q0 -83 47.5 -131.5t131.5 -48.5q93 0 188 53t164 131.5t112.5 171t43.5 169.5q0 83 -47.5 131t-132.5 48z" />
    <glyph glyph-name="Otilde" unicode="&#xd5;" horiz-adv-x="840" 
d="M953 861h8q-18 -38 -46.5 -59.5t-59.5 -21.5q-25 0 -65.5 23t-63.5 23q-52 0 -75 -46h-8q18 38 47.5 59.5t62.5 21.5q26 0 64 -23t62 -23q53 0 74 46zM751 710q104 0 163.5 -54t59.5 -145q0 -82 -48 -175t-124.5 -169.5t-180.5 -126.5t-206 -50q-104 0 -163 54t-59 145
q0 84 47.5 177t123.5 168.5t180 125.5t207 50zM747 702q-93 0 -187.5 -52.5t-163.5 -130.5t-112.5 -170.5t-43.5 -170.5q0 -83 47.5 -131.5t131.5 -48.5q93 0 188 53t164 131.5t112.5 171t43.5 169.5q0 83 -47.5 131t-132.5 48z" />
    <glyph glyph-name="Odieresis" unicode="&#xd6;" horiz-adv-x="840" 
d="M731 850q14 0 21 -7.5t7 -17.5q0 -18 -15 -31.5t-36 -13.5q-27 0 -27 25q0 18 15.5 31.5t34.5 13.5zM891 850q14 0 21 -7.5t7 -17.5q0 -18 -15 -31.5t-36 -13.5q-27 0 -27 25q0 18 15.5 31.5t34.5 13.5zM751 710q104 0 163.5 -54t59.5 -145q0 -82 -48 -175t-124.5 -169.5
t-180.5 -126.5t-206 -50q-104 0 -163 54t-59 145q0 84 47.5 177t123.5 168.5t180 125.5t207 50zM747 702q-93 0 -187.5 -52.5t-163.5 -130.5t-112.5 -170.5t-43.5 -170.5q0 -83 47.5 -131.5t131.5 -48.5q93 0 188 53t164 131.5t112.5 171t43.5 169.5q0 83 -47.5 131
t-132.5 48z" />
    <glyph glyph-name="multiply" unicode="&#xd7;" horiz-adv-x="390" 
d="M483 361l-166 -114l59 -112l-10 -7l-59 112l-163 -112l-6 11l163 112l-58 110l11 7l57 -110l167 114z" />
    <glyph glyph-name="Oslash" unicode="&#xd8;" horiz-adv-x="840" 
d="M1008 790l-113 -119q79 -53 79 -160q0 -82 -48 -175t-124.5 -169.5t-180.5 -126.5t-206 -50q-80 0 -136 34l-108 -114h-13l113 119q-78 53 -78 160q0 84 47.5 177t123.5 168.5t180 125.5t207 50q80 0 136 -34l108 114h13zM240 178q0 -82 48 -132l584 615q-47 41 -125 41
q-93 0 -187.5 -52.5t-163.5 -130.5t-112.5 -170.5t-43.5 -170.5zM419 -2q93 0 188 53t164 131.5t112.5 171t43.5 169.5q0 84 -49 131l-584 -614q47 -42 125 -42z" />
    <glyph glyph-name="Ugrave" unicode="&#xd9;" horiz-adv-x="715" 
d="M687 900q13 0 23.5 -10.5t10.5 -35.5q0 -35 11 -56t41 -42l-4 -6q-6 4 -26 16t-32.5 20.5t-27.5 21.5t-23 27t-8 28q0 15 9.5 26t25.5 11zM1003 692h-38q-20 0 -27.5 -5.5t-16.5 -24.5l-204 -437q-39 -83 -101 -138t-125 -76t-131 -21q-184 0 -184 120q0 52 36 130
l197 422q7 14 7 21q0 9 -23 9h-40l3 8h190l-3 -8h-40q-20 0 -27.5 -5.5t-16.5 -24.5l-204 -437q-35 -76 -35 -126q0 -101 144 -101q103 0 196.5 54.5t148.5 172.5l204 437q7 14 7 21q0 9 -23 9h-38l3 8h144z" />
    <glyph glyph-name="Uacute" unicode="&#xda;" horiz-adv-x="715" 
d="M891 900q20 0 20 -21q0 -14 -13.5 -28t-43 -28.5l-51.5 -24.5t-64.5 -26l-57.5 -22v6q51 22 82 43t62 55q42 46 66 46zM1003 692h-38q-20 0 -27.5 -5.5t-16.5 -24.5l-204 -437q-39 -83 -101 -138t-125 -76t-131 -21q-184 0 -184 120q0 52 36 130l197 422q7 14 7 21
q0 9 -23 9h-40l3 8h190l-3 -8h-40q-20 0 -27.5 -5.5t-16.5 -24.5l-204 -437q-35 -76 -35 -126q0 -101 144 -101q103 0 196.5 54.5t148.5 172.5l204 437q7 14 7 21q0 9 -23 9h-38l3 8h144z" />
    <glyph glyph-name="Ucircumflex" unicode="&#xdb;" horiz-adv-x="715" 
d="M780 900h9q6 -34 29.5 -80.5t50.5 -66.5l-5 -5q-67 36 -100 87q-54 -34 -198 -87l-1 8q47 20 113 65.5t102 78.5zM1003 692h-38q-20 0 -27.5 -5.5t-16.5 -24.5l-204 -437q-39 -83 -101 -138t-125 -76t-131 -21q-184 0 -184 120q0 52 36 130l197 422q7 14 7 21q0 9 -23 9
h-40l3 8h190l-3 -8h-40q-20 0 -27.5 -5.5t-16.5 -24.5l-204 -437q-35 -76 -35 -126q0 -101 144 -101q103 0 196.5 54.5t148.5 172.5l204 437q7 14 7 21q0 9 -23 9h-38l3 8h144z" />
    <glyph glyph-name="Udieresis" unicode="&#xdc;" horiz-adv-x="715" 
d="M676 850q14 0 21 -7.5t7 -17.5q0 -18 -15 -31.5t-36 -13.5q-27 0 -27 25q0 18 15.5 31.5t34.5 13.5zM836 850q14 0 21 -7.5t7 -17.5q0 -18 -15 -31.5t-36 -13.5q-27 0 -27 25q0 18 15.5 31.5t34.5 13.5zM1003 692h-38q-20 0 -27.5 -5.5t-16.5 -24.5l-204 -437
q-39 -83 -101 -138t-125 -76t-131 -21q-184 0 -184 120q0 52 36 130l197 422q7 14 7 21q0 9 -23 9h-40l3 8h190l-3 -8h-40q-20 0 -27.5 -5.5t-16.5 -24.5l-204 -437q-35 -76 -35 -126q0 -101 144 -101q103 0 196.5 54.5t148.5 172.5l204 437q7 14 7 21q0 9 -23 9h-38l3 8
h144z" />
    <glyph glyph-name="Yacute" unicode="&#xdd;" horiz-adv-x="670" 
d="M886 900q20 0 20 -21q0 -14 -13.5 -28t-43 -28.5l-51.5 -24.5t-64.5 -26l-57.5 -22v6q51 22 82 43t62 55q42 46 66 46zM983 692h-25q-43 0 -75 -30l-387 -371l-118 -253q-7 -14 -7 -21q0 -9 23 -9h40l-4 -8h-190l4 8h40q20 0 27.5 5.5t16.5 24.5l119 256l-39 368
q-2 18 -9.5 24t-27.5 6h-38l3 8h223l-3 -8h-70q-21 0 -26 -6.5t-3 -23.5l36 -362l376 359q19 19 19 26t-18 7h-72l3 8h185z" />
    <glyph glyph-name="Thorn" unicode="&#xde;" horiz-adv-x="640" 
d="M563 692h-40q-20 0 -27.5 -5.5t-16.5 -24.5l-56 -120h155q159 0 159 -104q0 -46 -24.5 -95t-67 -90.5t-107.5 -68t-139 -26.5h-155l-56 -120q-7 -14 -7 -21q0 -9 23 -9h40l-4 -8h-190l4 8h40q20 0 27.5 5.5t16.5 24.5l291 624q7 14 7 21q0 9 -23 9h-40l3 8h190zM419 534
l-172 -368h155q81 0 150 47t105 113t36 128q0 80 -119 80h-155z" />
    <glyph glyph-name="germandbls" unicode="&#xdf;" horiz-adv-x="575" 
d="M607 750q115 0 115 -97q0 -40 -28.5 -76t-69 -61.5l-80.5 -48.5t-68.5 -46t-28.5 -44q0 -23 23 -50.5t51 -50t51 -56t23 -67.5q0 -57 -31.5 -95.5t-73 -53t-86.5 -14.5q-51 0 -95 22t-44 61q0 13 8.5 18t17.5 0.5t9 -16.5q0 -42 32.5 -59.5t73.5 -17.5q58 0 103.5 36.5
t45.5 88.5q0 33 -22.5 65t-50 54t-50 50t-22.5 54q0 25 41.5 63.5t91 74.5t91 85.5t41.5 93.5q0 79 -68 79q-43 0 -95 -41.5t-105 -150.5l-280 -600q-46 -100 -88 -150t-102 -50q-36 0 -55.5 17.5t-19.5 45.5q0 21 18 21q17 0 17 -19q0 -24 11.5 -40.5t28.5 -16.5
q32 0 58.5 36.5t81.5 155.5l251 538h-70l5 12h70l24 50q42 88 112.5 144t137.5 56z" />
    <glyph glyph-name="agrave" unicode="&#xe0;" horiz-adv-x="580" 
d="M476 700q13 0 23.5 -10.5t10.5 -35.5q0 -35 11 -56t41 -42l-4 -6q-6 4 -26 16t-32.5 20.5t-27.5 21.5t-23 27t-8 28q0 15 9.5 26t25.5 11zM490 510q55 0 75 -33.5t8 -82.5l52 106h50l-187 -396q-20 -44 -20 -62q0 -30 30 -30q42 0 116 95v-10q-80 -107 -154 -107
q-42 0 -42 44q0 32 23 78q-84 -122 -176 -122q-65 0 -100 34t-35 92q0 44 18 97.5t51.5 105.5t77 95t99.5 69.5t114 26.5zM488 502q-57 0 -116.5 -43.5t-102.5 -105.5t-70 -131.5t-27 -121.5q0 -49 26 -75.5t69 -26.5q51 0 105.5 46t104.5 148l59 123q41 77 31 132t-79 55z
" />
    <glyph glyph-name="aacute" unicode="&#xe1;" horiz-adv-x="580" 
d="M680 700q20 0 20 -21q0 -14 -13.5 -28t-43 -28.5l-51.5 -24.5t-64.5 -26l-57.5 -22v6q51 22 82 43t62 55q42 46 66 46zM490 510q55 0 75 -33.5t8 -82.5l52 106h50l-187 -396q-20 -44 -20 -62q0 -30 30 -30q42 0 116 95v-10q-80 -107 -154 -107q-42 0 -42 44q0 32 23 78
q-84 -122 -176 -122q-65 0 -100 34t-35 92q0 44 18 97.5t51.5 105.5t77 95t99.5 69.5t114 26.5zM488 502q-57 0 -116.5 -43.5t-102.5 -105.5t-70 -131.5t-27 -121.5q0 -49 26 -75.5t69 -26.5q51 0 105.5 46t104.5 148l59 123q41 77 31 132t-79 55z" />
    <glyph glyph-name="acircumflex" unicode="&#xe2;" horiz-adv-x="580" 
d="M569 700h9q6 -34 29.5 -80.5t50.5 -66.5l-5 -5q-67 36 -100 87q-54 -34 -198 -87l-1 8q47 20 113 65.5t102 78.5zM490 510q55 0 75 -33.5t8 -82.5l52 106h50l-187 -396q-20 -44 -20 -62q0 -30 30 -30q42 0 116 95v-10q-80 -107 -154 -107q-42 0 -42 44q0 32 23 78
q-84 -122 -176 -122q-65 0 -100 34t-35 92q0 44 18 97.5t51.5 105.5t77 95t99.5 69.5t114 26.5zM488 502q-57 0 -116.5 -43.5t-102.5 -105.5t-70 -131.5t-27 -121.5q0 -49 26 -75.5t69 -26.5q51 0 105.5 46t104.5 148l59 123q41 77 31 132t-79 55z" />
    <glyph glyph-name="atilde" unicode="&#xe3;" horiz-adv-x="580" 
d="M687 661h8q-18 -38 -46.5 -59.5t-59.5 -21.5q-25 0 -65.5 23t-63.5 23q-52 0 -75 -46h-8q18 38 47.5 59.5t62.5 21.5q26 0 64 -23t62 -23q53 0 74 46zM490 510q55 0 75 -33.5t8 -82.5l52 106h50l-187 -396q-20 -44 -20 -62q0 -30 30 -30q42 0 116 95v-10
q-80 -107 -154 -107q-42 0 -42 44q0 32 23 78q-84 -122 -176 -122q-65 0 -100 34t-35 92q0 44 18 97.5t51.5 105.5t77 95t99.5 69.5t114 26.5zM488 502q-57 0 -116.5 -43.5t-102.5 -105.5t-70 -131.5t-27 -121.5q0 -49 26 -75.5t69 -26.5q51 0 105.5 46t104.5 148l59 123
q41 77 31 132t-79 55z" />
    <glyph glyph-name="adieresis" unicode="&#xe4;" horiz-adv-x="580" 
d="M465 650q14 0 21 -7.5t7 -17.5q0 -18 -15 -31.5t-36 -13.5q-27 0 -27 25q0 18 15.5 31.5t34.5 13.5zM625 650q14 0 21 -7.5t7 -17.5q0 -18 -15 -31.5t-36 -13.5q-27 0 -27 25q0 18 15.5 31.5t34.5 13.5zM490 510q55 0 75 -33.5t8 -82.5l52 106h50l-187 -396
q-20 -44 -20 -62q0 -30 30 -30q42 0 116 95v-10q-80 -107 -154 -107q-42 0 -42 44q0 32 23 78q-84 -122 -176 -122q-65 0 -100 34t-35 92q0 44 18 97.5t51.5 105.5t77 95t99.5 69.5t114 26.5zM488 502q-57 0 -116.5 -43.5t-102.5 -105.5t-70 -131.5t-27 -121.5
q0 -49 26 -75.5t69 -26.5q51 0 105.5 46t104.5 148l59 123q41 77 31 132t-79 55z" />
    <glyph glyph-name="aring" unicode="&#xe5;" horiz-adv-x="580" 
d="M596 780q-65 0 -110.5 -38t-45.5 -93q0 -35 22 -57t61 -22q65 0 110.5 38t45.5 93q0 35 -22 57t-61 22zM529 582q-76 0 -76 70q0 46 40.5 81t96.5 35q76 0 76 -70q0 -46 -40.5 -81t-96.5 -35zM490 510q55 0 75 -33.5t8 -82.5l52 106h50l-187 -396q-20 -44 -20 -62
q0 -30 30 -30q42 0 116 95v-10q-80 -107 -154 -107q-42 0 -42 44q0 32 23 78q-84 -122 -176 -122q-65 0 -100 34t-35 92q0 44 18 97.5t51.5 105.5t77 95t99.5 69.5t114 26.5zM488 502q-57 0 -116.5 -43.5t-102.5 -105.5t-70 -131.5t-27 -121.5q0 -49 26 -75.5t69 -26.5
q51 0 105.5 46t104.5 148l59 123q41 77 31 132t-79 55z" />
    <glyph glyph-name="ae" unicode="&#xe6;" horiz-adv-x="815" 
d="M920 453q0 -47 -95 -105t-271 -102q-34 -81 -34 -147q0 -100 90 -100q104 0 184 110v-10q-80 -109 -184 -109q-66 0 -100.5 35t-34.5 98q0 33 11 72l-3 -5q-44 -97 -102 -148.5t-116 -51.5q-65 0 -100 34t-35 92q0 44 18 97.5t51.5 105.5t77 95t99.5 69.5t114 26.5
q55 0 75 -33.5t8 -82.5l52 106h50l-34 -73q98 83 199 83q37 0 58.5 -15.5t21.5 -41.5zM477 192l59 123q41 77 31 132t-79 55q-57 0 -116.5 -43.5t-102.5 -105.5t-70 -131.5t-27 -121.5q0 -49 26 -75.5t69 -26.5q51 0 105.5 46t104.5 148zM840 502q-75 0 -155 -73t-127 -174
q158 39 244.5 96t86.5 104q0 21 -13.5 34t-35.5 13z" />
    <glyph glyph-name="ccedilla" unicode="&#xe7;" horiz-adv-x="485" 
d="M485 510q61 0 88 -25t27 -58q0 -13 -9 -18t-17.5 -0.5t-8.5 16.5q0 43 -17 60t-63 17q-64 0 -137.5 -65t-123 -160.5t-49.5 -177.5q0 -100 90 -100q104 0 184 110v-10q-80 -109 -185 -109l-25 -54q32 -1 52.5 -16t20.5 -44q0 -40 -40.5 -66t-98.5 -26q-37 0 -59 12l6 8
q20 -12 53 -12q51 0 80 24.5t29 58.5q0 54 -55 53l29 62q-62 2 -94 37t-32 96q0 56 31 124.5t79.5 126.5t114.5 97t130 39z" />
    <glyph glyph-name="egrave" unicode="&#xe8;" horiz-adv-x="470" 
d="M567 556l-4 -6q-6 4 -26 16t-32.5 20.5t-27.5 21.5t-23 27t-8 28q0 15 9.5 26t25.5 11q13 0 23.5 -10.5t10.5 -35.5q0 -35 11 -56t41 -42zM575 453q0 -47 -95 -105t-271 -102q-34 -81 -34 -147q0 -100 90 -100q104 0 184 110v-10q-80 -109 -184 -109q-66 0 -100.5 35
t-34.5 98q0 57 31 124.5t80.5 126t118 97.5t135.5 39q37 0 58.5 -15.5t21.5 -41.5zM495 502q-75 0 -155 -73t-127 -174q158 39 244.5 96t86.5 104q0 21 -13.5 34t-35.5 13z" />
    <glyph glyph-name="eacute" unicode="&#xe9;" horiz-adv-x="470" 
d="M685 700q20 0 20 -21q0 -14 -13.5 -28t-43 -28.5l-51.5 -24.5t-64.5 -26l-57.5 -22v6q51 22 82 43t62 55q42 46 66 46zM495 510q37 0 58.5 -15.5t21.5 -41.5q0 -47 -95 -105t-271 -102q-34 -81 -34 -147q0 -100 90 -100q104 0 184 110v-10q-80 -109 -184 -109
q-66 0 -100.5 35t-34.5 98q0 57 31 124.5t80.5 126t118 97.5t135.5 39zM213 255q158 39 244.5 96t86.5 104q0 21 -13.5 34t-35.5 13q-75 0 -155 -73t-127 -174z" />
    <glyph glyph-name="ecircumflex" unicode="&#xea;" horiz-adv-x="470" 
d="M574 700h9q6 -34 29.5 -80.5t50.5 -66.5l-5 -5q-67 36 -100 87q-54 -34 -198 -87l-1 8q47 20 113 65.5t102 78.5zM495 510q37 0 58.5 -15.5t21.5 -41.5q0 -47 -95 -105t-271 -102q-34 -81 -34 -147q0 -100 90 -100q104 0 184 110v-10q-80 -109 -184 -109q-66 0 -100.5 35
t-34.5 98q0 57 31 124.5t80.5 126t118 97.5t135.5 39zM213 255q158 39 244.5 96t86.5 104q0 21 -13.5 34t-35.5 13q-75 0 -155 -73t-127 -174z" />
    <glyph glyph-name="edieresis" unicode="&#xeb;" horiz-adv-x="470" 
d="M447 580q-27 0 -27 25q0 18 15.5 31.5t34.5 13.5q14 0 21 -7.5t7 -17.5q0 -18 -15 -31.5t-36 -13.5zM630 650q14 0 21 -7.5t7 -17.5q0 -18 -15 -31.5t-36 -13.5q-27 0 -27 25q0 18 15.5 31.5t34.5 13.5zM495 510q37 0 58.5 -15.5t21.5 -41.5q0 -47 -95 -105t-271 -102
q-34 -81 -34 -147q0 -100 90 -100q104 0 184 110v-10q-80 -109 -184 -109q-66 0 -100.5 35t-34.5 98q0 57 31 124.5t80.5 126t118 97.5t135.5 39zM213 255q158 39 244.5 96t86.5 104q0 21 -13.5 34t-35.5 13q-75 0 -155 -73t-127 -174z" />
    <glyph glyph-name="igrave" unicode="&#xec;" 
d="M340 700q13 0 23.5 -10.5t10.5 -35.5q0 -35 11 -56t41 -42l-4 -6q-6 4 -26 16t-32.5 20.5t-27.5 21.5t-23 27t-8 28q0 15 9.5 26t25.5 11zM326 510q36 0 36 -35q0 -17 -10 -38l-153 -333q-20 -44 -20 -62q0 -30 30 -30q42 0 116 95v-10q-80 -107 -154 -107q-42 0 -42 44
q0 31 19 70l152 329q12 24 12 38q0 20 -18 20q-29 0 -87 -57v10q69 66 119 66z" />
    <glyph glyph-name="iacute" unicode="&#xed;" 
d="M545 700q20 0 20 -21q0 -14 -13.5 -28t-43 -28.5l-51.5 -24.5t-64.5 -26l-57.5 -22v6q51 22 82 43t62 55q42 46 66 46zM326 510q36 0 36 -35q0 -17 -10 -38l-153 -333q-20 -44 -20 -62q0 -30 30 -30q42 0 116 95v-10q-80 -107 -154 -107q-42 0 -42 44q0 31 19 70l152 329
q12 24 12 38q0 20 -18 20q-29 0 -87 -57v10q69 66 119 66z" />
    <glyph glyph-name="icircumflex" unicode="&#xee;" 
d="M433 700h9q6 -34 29.5 -80.5t50.5 -66.5l-5 -5q-67 36 -100 87q-54 -34 -198 -87l-1 8q47 20 113 65.5t102 78.5zM326 510q36 0 36 -35q0 -17 -10 -38l-153 -333q-20 -44 -20 -62q0 -30 30 -30q42 0 116 95v-10q-80 -107 -154 -107q-42 0 -42 44q0 31 19 70l152 329
q12 24 12 38q0 20 -18 20q-29 0 -87 -57v10q69 66 119 66z" />
    <glyph glyph-name="idieresis" unicode="&#xef;" 
d="M329 650q14 0 21 -7.5t7 -17.5q0 -18 -15 -31.5t-36 -13.5q-27 0 -27 25q0 18 15.5 31.5t34.5 13.5zM489 650q14 0 21 -7.5t7 -17.5q0 -18 -15 -31.5t-36 -13.5q-27 0 -27 25q0 18 15.5 31.5t34.5 13.5zM326 510q36 0 36 -35q0 -17 -10 -38l-153 -333q-20 -44 -20 -62
q0 -30 30 -30q42 0 116 95v-10q-80 -107 -154 -107q-42 0 -42 44q0 31 19 70l152 329q12 24 12 38q0 20 -18 20q-29 0 -87 -57v10q69 66 119 66z" />
    <glyph glyph-name="eth" unicode="&#xf0;" horiz-adv-x="575" 
d="M704 860l-116 -110q136 -5 136 -150q0 -78 -36.5 -182t-96.5 -200t-147.5 -162t-178.5 -66q-71 0 -105.5 32.5t-34.5 88.5q0 57 30 125.5t80.5 130t128.5 102.5t164 41q95 0 127 -41q37 105 37 169q0 58 -29 80.5t-83 23.5l-155 -148l-8 6l149 142q-103 -5 -197 -97l-1 5
q95 97 206 100l122 116zM269 -2q48 0 93 21t82 61t67 82t57.5 100.5t44.5 99.5t37 94q-28 46 -126 46q-93 0 -178 -71.5t-131 -165t-46 -169.5q0 -47 25.5 -72.5t74.5 -25.5z" />
    <glyph glyph-name="ntilde" unicode="&#xf1;" horiz-adv-x="590" 
d="M687 661h8q-18 -38 -46.5 -59.5t-59.5 -21.5q-25 0 -65.5 23t-63.5 23q-52 0 -75 -46h-8q18 38 47.5 59.5t62.5 21.5q26 0 64 -23t62 -23q53 0 74 46zM559 510q44 0 65 -19t21 -47t-17 -64l-129 -276q-20 -44 -20 -62q0 -30 30 -30q42 0 116 95v-10q-80 -107 -154 -107
q-42 0 -42 44q0 31 19 70l130 276q22 46 22 82q0 40 -43 40q-72 0 -166 -92.5t-140 -191.5l-101 -214l-50 -4v4l200 429q12 24 12 38q0 20 -18 20q-29 0 -87 -57v10q69 66 119 66q36 0 36 -35q0 -17 -10 -38l-65 -142q60 89 135 152t137 63z" />
    <glyph glyph-name="ograve" unicode="&#xf2;" horiz-adv-x="575" 
d="M504 700q13 0 23.5 -10.5t10.5 -35.5q0 -35 11 -56t41 -42l-4 -6q-6 4 -26 16t-32.5 20.5t-27.5 21.5t-23 27t-8 28q0 15 9.5 26t25.5 11zM510 510q71 0 105.5 -32.5t34.5 -89.5q0 -45 -18 -98.5t-53 -106t-80 -96t-105.5 -70.5t-123.5 -27q-71 0 -105.5 32.5t-34.5 88.5
t29 124.5t77.5 130t122 103t151.5 41.5zM508 502q-85 0 -165.5 -73.5t-125.5 -167.5t-45 -166q0 -97 100 -97q64 0 128 44t108 107t72 132.5t28 122.5q0 47 -25.5 72.5t-74.5 25.5z" />
    <glyph glyph-name="oacute" unicode="&#xf3;" horiz-adv-x="575" 
d="M708 700q20 0 20 -21q0 -14 -13.5 -28t-43 -28.5l-51.5 -24.5t-64.5 -26l-57.5 -22v6q51 22 82 43t62 55q42 46 66 46zM510 510q71 0 105.5 -32.5t34.5 -89.5q0 -45 -18 -98.5t-53 -106t-80 -96t-105.5 -70.5t-123.5 -27q-71 0 -105.5 32.5t-34.5 88.5t29 124.5t77.5 130
t122 103t151.5 41.5zM508 502q-85 0 -165.5 -73.5t-125.5 -167.5t-45 -166q0 -97 100 -97q64 0 128 44t108 107t72 132.5t28 122.5q0 47 -25.5 72.5t-74.5 25.5z" />
    <glyph glyph-name="ocircumflex" unicode="&#xf4;" horiz-adv-x="575" 
d="M597 700h9q6 -34 29.5 -80.5t50.5 -66.5l-5 -5q-67 36 -100 87q-54 -34 -198 -87l-1 8q47 20 113 65.5t102 78.5zM510 510q71 0 105.5 -32.5t34.5 -89.5q0 -45 -18 -98.5t-53 -106t-80 -96t-105.5 -70.5t-123.5 -27q-71 0 -105.5 32.5t-34.5 88.5t29 124.5t77.5 130
t122 103t151.5 41.5zM508 502q-85 0 -165.5 -73.5t-125.5 -167.5t-45 -166q0 -97 100 -97q64 0 128 44t108 107t72 132.5t28 122.5q0 47 -25.5 72.5t-74.5 25.5z" />
    <glyph glyph-name="otilde" unicode="&#xf5;" horiz-adv-x="575" 
d="M715 661h8q-18 -38 -46.5 -59.5t-59.5 -21.5q-25 0 -65.5 23t-63.5 23q-52 0 -75 -46h-8q18 38 47.5 59.5t62.5 21.5q26 0 64 -23t62 -23q53 0 74 46zM510 510q71 0 105.5 -32.5t34.5 -89.5q0 -45 -18 -98.5t-53 -106t-80 -96t-105.5 -70.5t-123.5 -27q-71 0 -105.5 32.5
t-34.5 88.5t29 124.5t77.5 130t122 103t151.5 41.5zM508 502q-85 0 -165.5 -73.5t-125.5 -167.5t-45 -166q0 -97 100 -97q64 0 128 44t108 107t72 132.5t28 122.5q0 47 -25.5 72.5t-74.5 25.5z" />
    <glyph glyph-name="odieresis" unicode="&#xf6;" horiz-adv-x="575" 
d="M493 650q14 0 21 -7.5t7 -17.5q0 -18 -15 -31.5t-36 -13.5q-27 0 -27 25q0 18 15.5 31.5t34.5 13.5zM653 650q14 0 21 -7.5t7 -17.5q0 -18 -15 -31.5t-36 -13.5q-27 0 -27 25q0 18 15.5 31.5t34.5 13.5zM510 510q71 0 105.5 -32.5t34.5 -89.5q0 -45 -18 -98.5t-53 -106
t-80 -96t-105.5 -70.5t-123.5 -27q-71 0 -105.5 32.5t-34.5 88.5t29 124.5t77.5 130t122 103t151.5 41.5zM508 502q-85 0 -165.5 -73.5t-125.5 -167.5t-45 -166q0 -97 100 -97q64 0 128 44t108 107t72 132.5t28 122.5q0 47 -25.5 72.5t-74.5 25.5z" />
    <glyph glyph-name="divide" unicode="&#xf7;" horiz-adv-x="390" 
d="M373 390q14 0 21 -7.5t7 -17.5q0 -18 -15 -31.5t-36 -13.5q-27 0 -27 25q0 18 15.5 31.5t34.5 13.5zM453 243h-290l6 12h290zM273 180q14 0 21 -7.5t7 -17.5q0 -18 -15 -31.5t-36 -13.5q-27 0 -27 25q0 18 15.5 31.5t34.5 13.5z" />
    <glyph glyph-name="oslash" unicode="&#xf8;" horiz-adv-x="540" 
d="M673 500l-43 -39q20 -29 20 -73q0 -45 -18 -98.5t-53 -106t-80 -96t-105.5 -70.5t-123.5 -27q-83 0 -117 45l-40 -35h-13l48 42q-18 28 -18 69q0 56 29 124.5t77.5 130t122 103t151.5 41.5t114 -42l36 32h13zM172 95q0 -16 3 -28l426 380q-20 55 -93 55
q-85 0 -165.5 -73.5t-125.5 -167.5t-45 -166zM608 404q0 14 -4 34l-427 -381q19 -59 95 -59q64 0 128 44t108 107t72 132.5t28 122.5z" />
    <glyph glyph-name="ugrave" unicode="&#xf9;" horiz-adv-x="590" 
d="M499 700q13 0 23.5 -10.5t10.5 -35.5q0 -35 11 -56t41 -42l-4 -6q-6 4 -26 16t-32.5 20.5t-27.5 21.5t-23 27t-8 28q0 15 9.5 26t25.5 11zM309 510q42 0 42 -44q0 -31 -19 -70l-130 -276q-22 -46 -22 -82q0 -40 43 -40q72 0 166 92.5t140 191.5l101 214l50 4v-4
l-182 -392q-20 -44 -20 -62q0 -30 30 -30q42 0 116 95v-10q-80 -107 -154 -107q-42 0 -42 44q0 31 19 70l47 102q-60 -90 -135.5 -153t-137.5 -63q-44 0 -65 19t-21 47t17 64l129 276q20 44 20 62q0 30 -30 30q-43 0 -116 -95v11q79 106 154 106z" />
    <glyph glyph-name="uacute" unicode="&#xfa;" horiz-adv-x="590" 
d="M703 700q20 0 20 -21q0 -14 -13.5 -28t-43 -28.5l-51.5 -24.5t-64.5 -26l-57.5 -22v6q51 22 82 43t62 55q42 46 66 46zM309 510q42 0 42 -44q0 -31 -19 -70l-130 -276q-22 -46 -22 -82q0 -40 43 -40q72 0 166 92.5t140 191.5l101 214l50 4v-4l-182 -392q-20 -44 -20 -62
q0 -30 30 -30q42 0 116 95v-10q-80 -107 -154 -107q-42 0 -42 44q0 31 19 70l47 102q-60 -90 -135.5 -153t-137.5 -63q-44 0 -65 19t-21 47t17 64l129 276q20 44 20 62q0 30 -30 30q-43 0 -116 -95v11q79 106 154 106z" />
    <glyph glyph-name="ucircumflex" unicode="&#xfb;" horiz-adv-x="590" 
d="M592 700h9q6 -34 29.5 -80.5t50.5 -66.5l-5 -5q-67 36 -100 87q-54 -34 -198 -87l-1 8q47 20 113 65.5t102 78.5zM309 510q42 0 42 -44q0 -31 -19 -70l-130 -276q-22 -46 -22 -82q0 -40 43 -40q72 0 166 92.5t140 191.5l101 214l50 4v-4l-182 -392q-20 -44 -20 -62
q0 -30 30 -30q42 0 116 95v-10q-80 -107 -154 -107q-42 0 -42 44q0 31 19 70l47 102q-60 -90 -135.5 -153t-137.5 -63q-44 0 -65 19t-21 47t17 64l129 276q20 44 20 62q0 30 -30 30q-43 0 -116 -95v11q79 106 154 106z" />
    <glyph glyph-name="udieresis" unicode="&#xfc;" horiz-adv-x="590" 
d="M488 650q14 0 21 -7.5t7 -17.5q0 -18 -15 -31.5t-36 -13.5q-27 0 -27 25q0 18 15.5 31.5t34.5 13.5zM648 650q14 0 21 -7.5t7 -17.5q0 -18 -15 -31.5t-36 -13.5q-27 0 -27 25q0 18 15.5 31.5t34.5 13.5zM309 510q42 0 42 -44q0 -31 -19 -70l-130 -276q-22 -46 -22 -82
q0 -40 43 -40q72 0 166 92.5t140 191.5l101 214l50 4v-4l-182 -392q-20 -44 -20 -62q0 -30 30 -30q42 0 116 95v-10q-80 -107 -154 -107q-42 0 -42 44q0 31 19 70l47 102q-60 -90 -135.5 -153t-137.5 -63q-44 0 -65 19t-21 47t17 64l129 276q20 44 20 62q0 30 -30 30
q-43 0 -116 -95v11q79 106 154 106z" />
    <glyph glyph-name="yacute" unicode="&#xfd;" horiz-adv-x="540" 
d="M633 700q20 0 20 -21q0 -14 -13.5 -28t-43 -28.5l-51.5 -24.5t-64.5 -26l-57.5 -22v6q51 22 82 43t62 55q42 46 66 46zM587 510q30 0 30 -54t-74.5 -154.5t-257.5 -313.5q-205 -238 -314 -238q-61 0 -88 25t-27 58q0 21 18 21q17 0 17 -19q0 -43 17 -60t63 -17
q111 0 309 233l31 447q4 50 -28 50q-41 0 -116 -95v11q80 106 154 106q20 0 33.5 -17.5t11.5 -46.5l-29 -387l13 15q239 280 239 331q0 21 -13.5 43.5t-13.5 36.5q0 25 25 25z" />
    <glyph glyph-name="thorn" unicode="&#xfe;" horiz-adv-x="566" 
d="M506 510q65 0 100 -34t35 -92q0 -44 -18 -97.5t-51.5 -105.5t-77 -95t-99.5 -69.5t-114 -26.5q-55 0 -75 33.5t-8 82.5l-167 -346h-50l464 980h50l-165 -352q83 122 176 122zM504 502q-114 0 -209 -193l-59 -124q-26 -53 -32 -94.5t13.5 -67t65.5 -25.5q57 0 116.5 43.5
t102.5 105.5t70 131.5t27 121.5q0 49 -26 75.5t-69 26.5z" />
    <glyph glyph-name="ydieresis" unicode="&#xff;" horiz-adv-x="540" 
d="M418 650q14 0 21 -7.5t7 -17.5q0 -18 -15 -31.5t-36 -13.5q-27 0 -27 25q0 18 15.5 31.5t34.5 13.5zM578 650q14 0 21 -7.5t7 -17.5q0 -18 -15 -31.5t-36 -13.5q-27 0 -27 25q0 18 15.5 31.5t34.5 13.5zM587 510q30 0 30 -54t-74.5 -154.5t-257.5 -313.5
q-205 -238 -314 -238q-61 0 -88 25t-27 58q0 21 18 21q17 0 17 -19q0 -43 17 -60t63 -17q111 0 309 233l31 447q4 50 -28 50q-41 0 -116 -95v11q80 106 154 106q20 0 33.5 -17.5t11.5 -46.5l-29 -387l13 15q239 280 239 331q0 21 -13.5 43.5t-13.5 36.5q0 25 25 25z" />
    <glyph glyph-name="Amacron" unicode="&#x100;" horiz-adv-x="710" 
d="M849 812l-5 -12h-250l5 12h250zM679 705l-33 -667q-1 -19 5 -24.5t27 -5.5h31l-4 -8h-193l4 8h52q16 0 22 6.5t7 23.5l10 195h-330l-166 -193q-14 -17 -14 -24q0 -8 14 -8h58l-4 -8h-160l4 8h35q20 0 28.5 4.5t26.5 25.5l572 667h8zM629 644l-346 -403h324z" />
    <glyph glyph-name="amacron" unicode="&#x101;" horiz-adv-x="580" 
d="M652 600h-250l5 12h250zM490 510q55 0 75 -33.5t8 -82.5l52 106h50l-187 -396q-20 -44 -20 -62q0 -30 30 -30q42 0 116 95v-10q-80 -107 -154 -107q-42 0 -42 44q0 32 23 78q-84 -122 -176 -122q-65 0 -100 34t-35 92q0 44 18 97.5t51.5 105.5t77 95t99.5 69.5t114 26.5z
M488 502q-57 0 -116.5 -43.5t-102.5 -105.5t-70 -131.5t-27 -121.5q0 -49 26 -75.5t69 -26.5q51 0 105.5 46t104.5 148l59 123q41 77 31 132t-79 55z" />
    <glyph glyph-name="Abreve" unicode="&#x102;" horiz-adv-x="710" 
d="M878 883h8q-41 -67 -91.5 -100t-100.5 -33q-73 0 -73 72q0 27 10 61h8q-5 -17 -5 -32q0 -61 79 -61q58 0 100 28t65 65zM679 705l-33 -667q-1 -19 5 -24.5t27 -5.5h31l-4 -8h-193l4 8h52q16 0 22 6.5t7 23.5l10 195h-330l-166 -193q-14 -17 -14 -24q0 -8 14 -8h58l-4 -8
h-160l4 8h35q20 0 28.5 4.5t26.5 25.5l572 667h8zM629 644l-346 -403h324z" />
    <glyph glyph-name="abreve" unicode="&#x103;" horiz-adv-x="580" 
d="M686 683h8q-41 -67 -91.5 -100t-100.5 -33q-73 0 -73 72q0 27 10 61h8q-5 -17 -5 -32q0 -61 79 -61q58 0 100 28t65 65zM490 510q55 0 75 -33.5t8 -82.5l52 106h50l-187 -396q-20 -44 -20 -62q0 -30 30 -30q42 0 116 95v-10q-80 -107 -154 -107q-42 0 -42 44q0 32 23 78
q-84 -122 -176 -122q-65 0 -100 34t-35 92q0 44 18 97.5t51.5 105.5t77 95t99.5 69.5t114 26.5zM488 502q-57 0 -116.5 -43.5t-102.5 -105.5t-70 -131.5t-27 -121.5q0 -49 26 -75.5t69 -26.5q51 0 105.5 46t104.5 148l59 123q41 77 31 132t-79 55z" />
    <glyph glyph-name="Aogonek" unicode="&#x104;" horiz-adv-x="710" 
d="M709 8l-4 -8h-16q-55 -32 -100 -78.5t-45 -78.5q0 -29 34 -29t71 21l-2 -6q-40 -29 -86 -29q-50 0 -50 36q0 38 49 81.5t121 82.5h-169l4 8h52q16 0 22 6.5t7 23.5l10 195h-330l-166 -193q-14 -17 -14 -24q0 -8 14 -8h58l-4 -8h-160l4 8h35q20 0 28.5 4.5t26.5 25.5
l572 667h8l-33 -667q-1 -19 5 -24.5t27 -5.5h31zM629 644l-346 -403h324z" />
    <glyph glyph-name="aogonek" unicode="&#x105;" horiz-adv-x="580" 
d="M490 510q55 0 75 -33.5t8 -82.5l52 106h50l-187 -396q-20 -44 -20 -62q0 -30 30 -30q43 0 116 95v-11q-27 -39 -74 -76.5t-85 -60.5t-67 -53.5t-29 -62.5q0 -29 34 -29t71 21l-2 -6q-40 -29 -86 -29q-50 0 -50 36q0 25 30.5 56.5t61 52l86.5 55.5q-23 -10 -44 -10
q-42 0 -42 44q0 32 23 78q-84 -122 -176 -122q-65 0 -100 34t-35 92q0 44 18 97.5t51.5 105.5t77 95t99.5 69.5t114 26.5zM488 502q-57 0 -116.5 -43.5t-102.5 -105.5t-70 -131.5t-27 -121.5q0 -49 26 -75.5t69 -26.5q51 0 105.5 46t104.5 148l59 123q41 77 31 132t-79 55z
" />
    <glyph glyph-name="Cacute" unicode="&#x106;" horiz-adv-x="740" 
d="M946 900q20 0 20 -21q0 -14 -13.5 -28t-43 -28.5l-51.5 -24.5t-64.5 -26l-57.5 -22v6q51 22 82 43t62 55q42 46 66 46zM751 710q46 0 84.5 -10t58 -22.5l35.5 -22.5t23 -10q11 0 18 15l18 40h8l-81 -175h-8l2 10q8 28 8 55q0 112 -170 112q-93 0 -187.5 -52.5
t-163.5 -130.5t-112.5 -170.5t-43.5 -170.5q0 -83 47.5 -131.5t131.5 -48.5q207 0 318 167l7 10h8l-82 -175h-8l19 40q3 6 3 9q0 6 -7 6q-6 0 -44.5 -16.5t-98.5 -32.5t-119 -16q-104 0 -163 54t-59 145q0 84 47.5 177t123.5 168.5t180 125.5t207 50z" />
    <glyph glyph-name="cacute" unicode="&#x107;" horiz-adv-x="485" 
d="M685 700q20 0 20 -21q0 -14 -13.5 -28t-43 -28.5l-51.5 -24.5t-64.5 -26l-57.5 -22v6q51 22 82 43t62 55q42 46 66 46zM485 510q61 0 88 -25t27 -58q0 -13 -9 -18t-17.5 -0.5t-8.5 16.5q0 43 -17 60t-63 17q-64 0 -137.5 -65t-123 -160.5t-49.5 -177.5q0 -100 90 -100
q104 0 184 110v-10q-80 -109 -184 -109q-66 0 -100.5 35t-34.5 98q0 56 31 124.5t79.5 126.5t114.5 97t130 39z" />
    <glyph glyph-name="Cdotaccent" unicode="&#x10a;" horiz-adv-x="740" 
d="M811 850q14 0 21 -7.5t7 -17.5q0 -18 -15 -31.5t-36 -13.5q-27 0 -27 25q0 18 15.5 31.5t34.5 13.5zM751 710q46 0 84.5 -10t58 -22.5l35.5 -22.5t23 -10q11 0 18 15l18 40h8l-81 -175h-8l2 10q8 28 8 55q0 112 -170 112q-93 0 -187.5 -52.5t-163.5 -130.5t-112.5 -170.5
t-43.5 -170.5q0 -83 47.5 -131.5t131.5 -48.5q207 0 318 167l7 10h8l-82 -175h-8l19 40q3 6 3 9q0 6 -7 6q-6 0 -44.5 -16.5t-98.5 -32.5t-119 -16q-104 0 -163 54t-59 145q0 84 47.5 177t123.5 168.5t180 125.5t207 50z" />
    <glyph glyph-name="cdotaccent" unicode="&#x10b;" horiz-adv-x="485" 
d="M550 650q14 0 21 -7.5t7 -17.5q0 -18 -15 -31.5t-36 -13.5q-27 0 -27 25q0 18 15.5 31.5t34.5 13.5zM485 510q61 0 88 -25t27 -58q0 -13 -9 -18t-17.5 -0.5t-8.5 16.5q0 43 -17 60t-63 17q-64 0 -137.5 -65t-123 -160.5t-49.5 -177.5q0 -100 90 -100q104 0 184 110v-10
q-80 -109 -184 -109q-66 0 -100.5 35t-34.5 98q0 56 31 124.5t79.5 126.5t114.5 97t130 39z" />
    <glyph glyph-name="Ccaron" unicode="&#x10c;" horiz-adv-x="740" 
d="M987 900l1 -8q-46 -20 -111.5 -65.5t-102.5 -78.5h-9q-7 34 -29 80t-50 66l5 6q66 -36 98 -87q56 35 198 87zM751 710q46 0 84.5 -10t58 -22.5l35.5 -22.5t23 -10q11 0 18 15l18 40h8l-81 -175h-8l2 10q8 28 8 55q0 112 -170 112q-93 0 -187.5 -52.5t-163.5 -130.5
t-112.5 -170.5t-43.5 -170.5q0 -83 47.5 -131.5t131.5 -48.5q207 0 318 167l7 10h8l-82 -175h-8l19 40q3 6 3 9q0 6 -7 6q-6 0 -44.5 -16.5t-98.5 -32.5t-119 -16q-104 0 -163 54t-59 145q0 84 47.5 177t123.5 168.5t180 125.5t207 50z" />
    <glyph glyph-name="ccaron" unicode="&#x10d;" horiz-adv-x="485" 
d="M726 700l1 -8q-46 -20 -111.5 -65.5t-102.5 -78.5h-9q-7 34 -29 80t-50 66l5 6q66 -36 98 -87q56 35 198 87zM485 510q61 0 88 -25t27 -58q0 -13 -9 -18t-17.5 -0.5t-8.5 16.5q0 43 -17 60t-63 17q-64 0 -137.5 -65t-123 -160.5t-49.5 -177.5q0 -100 90 -100
q104 0 184 110v-10q-80 -109 -184 -109q-66 0 -100.5 35t-34.5 98q0 56 31 124.5t79.5 126.5t114.5 97t130 39z" />
    <glyph glyph-name="Dcaron" unicode="&#x10e;" horiz-adv-x="770" 
d="M917 900l1 -8q-46 -20 -111.5 -65.5t-102.5 -78.5h-9q-7 34 -29 80t-50 66l5 6q66 -36 98 -87q56 35 198 87zM376 700h300q105 0 166 -52t61 -142q0 -82 -47 -172.5t-122.5 -164t-178.5 -121.5t-205 -48h-300l4 8h40q20 0 27.5 5.5t16.5 24.5l291 624q7 14 7 21
q0 9 -23 9h-40zM673 692h-150q-20 0 -27.5 -5.5t-16.5 -24.5l-291 -624q-7 -14 -7 -21q0 -9 23 -9h150q92 0 186 50.5t162.5 126.5t111.5 166t43 167q0 81 -49 127.5t-135 46.5z" />
    <glyph glyph-name="dcaron" unicode="&#x10f;" horiz-adv-x="585" 
d="M855 750q30 0 30 -31q0 -35 -34 -67t-75 -32v8q27 0 51 15.5t24 30.5q0 12 -16 23.5t-16 22.5q0 14 10 22t26 8zM490 510q55 0 75 -33.5t8 -82.5l167 346h50l-302 -636q-20 -44 -20 -62q0 -30 30 -30q42 0 116 95v-10q-80 -107 -154 -107q-42 0 -42 44q0 32 23 78
q-84 -122 -176 -122q-65 0 -100 34t-35 92q0 44 18 97.5t51.5 105.5t77 95t99.5 69.5t114 26.5zM488 502q-57 0 -116.5 -43.5t-102.5 -105.5t-70 -131.5t-27 -121.5q0 -49 26 -75.5t69 -26.5q51 0 105.5 46t104.5 148l59 123q41 77 31 132t-79 55z" />
    <glyph glyph-name="Dcroat" unicode="&#x110;" horiz-adv-x="770" 
d="M376 700h300q105 0 166 -52t61 -142q0 -82 -47 -172.5t-122.5 -164t-178.5 -121.5t-205 -48h-300l4 8h40q20 0 27.5 5.5t16.5 24.5l143 306h-71l6 12h70l143 306q7 14 7 21q0 9 -23 9h-40zM204 8h150q92 0 186 50.5t162.5 126.5t111.5 166t43 167q0 81 -49 127.5
t-135 46.5h-150q-20 0 -27.5 -5.5t-16.5 -24.5l-143 -306h170l-6 -12h-169l-143 -306q-7 -14 -7 -21q0 -9 23 -9z" />
    <glyph glyph-name="dcroat" unicode="&#x111;" horiz-adv-x="555" 
d="M726 605l-238 -501q-20 -44 -20 -62q0 -30 30 -30q42 0 116 95v-10q-80 -107 -154 -107q-42 0 -42 44q0 32 23 78q-84 -122 -176 -122q-65 0 -100 34t-35 92q0 44 18 97.5t51.5 105.5t77 95t99.5 69.5t114 26.5q55 0 75 -33.5t8 -82.5l102 211h-78l6 12h78l59 123h50
l-58 -123h81l-6 -12h-81zM267 -2q51 0 105.5 46t104.5 148l59 123q41 77 31 132t-79 55q-57 0 -116.5 -43.5t-102.5 -105.5t-70 -131.5t-27 -121.5q0 -49 26 -75.5t69 -26.5z" />
    <glyph glyph-name="Emacron" unicode="&#x112;" horiz-adv-x="645" 
d="M828 800h-250l5 12h250zM876 700l-76 -164h-8l14 30q21 43 21 74q0 52 -68 52h-236q-20 0 -27.5 -5.5t-16.5 -24.5l-140 -300h166q106 0 147 88l14 30h8l-114 -244h-8l14 30q12 25 12 43q0 45 -77 45h-166l-147 -316q-7 -14 -7 -21q0 -9 23 -9h261q106 0 164 126l14 30h8
l-76 -164h-525l4 8h40q20 0 27.5 5.5t16.5 24.5l291 624q7 14 7 21q0 9 -23 9h-40l3 8h500z" />
    <glyph glyph-name="emacron" unicode="&#x113;" horiz-adv-x="470" 
d="M662 612l-5 -12h-250l5 12h250zM495 510q37 0 58.5 -15.5t21.5 -41.5q0 -47 -95 -105t-271 -102q-34 -81 -34 -147q0 -100 90 -100q104 0 184 110v-10q-80 -109 -184 -109q-66 0 -100.5 35t-34.5 98q0 57 31 124.5t80.5 126t118 97.5t135.5 39zM213 255q158 39 244.5 96
t86.5 104q0 21 -13.5 34t-35.5 13q-75 0 -155 -73t-127 -174z" />
    <glyph glyph-name="Edotaccent" unicode="&#x116;" horiz-adv-x="645" 
d="M698 780q-27 0 -27 25q0 18 15.5 31.5t34.5 13.5q14 0 21 -7.5t7 -17.5q0 -18 -15 -31.5t-36 -13.5zM876 700l-76 -164h-8l14 30q21 43 21 74q0 52 -68 52h-236q-20 0 -27.5 -5.5t-16.5 -24.5l-140 -300h166q106 0 147 88l14 30h8l-114 -244h-8l14 30q12 25 12 43
q0 45 -77 45h-166l-147 -316q-7 -14 -7 -21q0 -9 23 -9h261q106 0 164 126l14 30h8l-76 -164h-525l4 8h40q20 0 27.5 5.5t16.5 24.5l291 624q7 14 7 21q0 9 -23 9h-40l3 8h500z" />
    <glyph glyph-name="edotaccent" unicode="&#x117;" horiz-adv-x="470" 
d="M527 580q-27 0 -27 25q0 18 15.5 31.5t34.5 13.5q14 0 21 -7.5t7 -17.5q0 -18 -15 -31.5t-36 -13.5zM495 510q37 0 58.5 -15.5t21.5 -41.5q0 -47 -95 -105t-271 -102q-34 -81 -34 -147q0 -100 90 -100q104 0 184 110v-10q-80 -109 -184 -109q-66 0 -100.5 35t-34.5 98
q0 57 31 124.5t80.5 126t118 97.5t135.5 39zM213 255q158 39 244.5 96t86.5 104q0 21 -13.5 34t-35.5 13q-75 0 -155 -73t-127 -174z" />
    <glyph glyph-name="Eogonek" unicode="&#x118;" horiz-adv-x="645" 
d="M876 700l-76 -164h-8l14 30q21 43 21 74q0 52 -68 52h-236q-20 0 -27.5 -5.5t-16.5 -24.5l-140 -300h166q106 0 147 88l14 30h8l-114 -244h-8l14 30q12 25 12 43q0 45 -77 45h-166l-147 -316q-7 -14 -7 -21q0 -9 23 -9h261q106 0 164 126l14 30h8l-76 -164
q-55 -32 -100 -78.5t-45 -78.5q0 -29 34 -29t71 21l-2 -6q-40 -29 -86 -29q-50 0 -50 36q0 38 49 81.5t121 82.5h-517l4 8h40q20 0 27.5 5.5t16.5 24.5l291 624q7 14 7 21q0 9 -23 9h-40l3 8h500z" />
    <glyph glyph-name="eogonek" unicode="&#x119;" horiz-adv-x="470" 
d="M575 453q0 -47 -95 -105t-271 -102q-34 -81 -34 -147q0 -100 90 -100q104 0 184 110v-10q-28 -41 -77.5 -76.5t-89.5 -56.5t-71 -53t-31 -70q0 -29 34 -29t71 21l-2 -6q-40 -29 -86 -29q-50 0 -50 36q0 69 183 166q-29 -12 -65 -12q-66 0 -100.5 35t-34.5 98
q0 57 31 124.5t80.5 126t118 97.5t135.5 39q37 0 58.5 -15.5t21.5 -41.5zM495 502q-74 0 -154.5 -73t-127.5 -174q158 39 244.5 96t86.5 104q0 21 -13.5 34t-35.5 13z" />
    <glyph glyph-name="Ecaron" unicode="&#x11a;" horiz-adv-x="645" 
d="M684 748h-9q-7 34 -29 80t-50 66l5 6q66 -36 98 -87q56 35 198 87l1 -8q-46 -20 -111.5 -65.5t-102.5 -78.5zM376 700h500l-76 -164h-8l14 30q21 43 21 74q0 52 -68 52h-236q-20 0 -27.5 -5.5t-16.5 -24.5l-140 -300h166q106 0 147 88l14 30h8l-114 -244h-8l14 30
q12 25 12 43q0 45 -77 45h-166l-147 -316q-7 -14 -7 -21q0 -9 23 -9h261q106 0 164 126l14 30h8l-76 -164h-525l4 8h40q20 0 27.5 5.5t16.5 24.5l291 624q7 14 7 21q0 9 -23 9h-40z" />
    <glyph glyph-name="ecaron" unicode="&#x11b;" horiz-adv-x="470" 
d="M513 548h-9q-7 34 -29 80t-50 66l5 6q66 -36 98 -87q56 35 198 87l1 -8q-46 -20 -111.5 -65.5t-102.5 -78.5zM495 510q37 0 58.5 -15.5t21.5 -41.5q0 -47 -95 -105t-271 -102q-34 -81 -34 -147q0 -100 90 -100q104 0 184 110v-10q-80 -109 -184 -109q-66 0 -100.5 35
t-34.5 98q0 57 31 124.5t80.5 126t118 97.5t135.5 39zM213 255q158 39 244.5 96t86.5 104q0 21 -13.5 34t-35.5 13q-75 0 -155 -73t-127 -174z" />
    <glyph glyph-name="Gbreve" unicode="&#x11e;" horiz-adv-x="820" 
d="M952 883h8q-41 -67 -91.5 -100t-100.5 -33q-73 0 -73 72q0 27 10 61h8q-5 -17 -5 -32q0 -61 79 -61q58 0 100 28t65 65zM751 710q46 0 84.5 -10t58 -22.5l35.5 -22.5t23 -10q11 0 18 15l18 40h8l-81 -175h-8l2 10q8 28 8 55q0 112 -170 112q-93 0 -187.5 -52.5
t-163.5 -130.5t-112.5 -170.5t-43.5 -170.5q0 -83 47.5 -131.5t131.5 -48.5q230 0 329 212l48 102q7 14 7 21q0 9 -23 9h-40l3 8h190l-3 -8h-40q-20 0 -27.5 -5.5t-16.5 -24.5l-48 -102q-43 -93 -150.5 -156.5t-232.5 -63.5q-104 0 -163 54t-59 145q0 84 47.5 177
t123.5 168.5t180 125.5t207 50z" />
    <glyph glyph-name="gbreve" unicode="&#x11f;" horiz-adv-x="555" 
d="M675 683h8q-41 -67 -91.5 -100t-100.5 -33q-73 0 -73 72q0 27 10 61h8q-5 -17 -5 -32q0 -61 79 -61q58 0 100 28t65 65zM491 510q55 0 75 -33.5t8 -82.5l52 106h50l-245 -520q-23 -49 -45 -84.5t-55 -71.5t-77 -55t-97 -19q-54 0 -87 28t-33 68q0 49 49 90.5t145 56.5
q-100 20 -100 123q0 44 18 97.5t51.5 105.5t77 95t99.5 69.5t114 26.5zM489 502q-57 0 -116.5 -43.5t-102.5 -105.5t-70 -131.5t-27 -121.5q0 -49 26 -75.5t69 -26.5q51 0 105 46t104 148l59 123q26 53 32 94.5t-13.5 67t-65.5 25.5zM381 -20l61 132q-35 -53 -80.5 -87.5
t-95.5 -34.5q-108 -10 -163.5 -51.5t-55.5 -91.5q0 -36 31 -62.5t80 -26.5q74 0 119 48t104 174z" />
    <glyph glyph-name="Gdotaccent" unicode="&#x120;" horiz-adv-x="820" 
d="M811 850q14 0 21 -7.5t7 -17.5q0 -18 -15 -31.5t-36 -13.5q-27 0 -27 25q0 18 15.5 31.5t34.5 13.5zM751 710q46 0 84.5 -10t58 -22.5l35.5 -22.5t23 -10q11 0 18 15l18 40h8l-81 -175h-8l2 10q8 28 8 55q0 112 -170 112q-93 0 -187.5 -52.5t-163.5 -130.5t-112.5 -170.5
t-43.5 -170.5q0 -83 47.5 -131.5t131.5 -48.5q230 0 329 212l48 102q7 14 7 21q0 9 -23 9h-40l3 8h190l-3 -8h-40q-20 0 -27.5 -5.5t-16.5 -24.5l-48 -102q-43 -93 -150.5 -156.5t-232.5 -63.5q-104 0 -163 54t-59 145q0 84 47.5 177t123.5 168.5t180 125.5t207 50z" />
    <glyph glyph-name="gdotaccent" unicode="&#x121;" horiz-adv-x="555" 
d="M534 650q14 0 21 -7.5t7 -17.5q0 -18 -15 -31.5t-36 -13.5q-27 0 -27 25q0 18 15.5 31.5t34.5 13.5zM491 510q55 0 75 -33.5t8 -82.5l52 106h50l-245 -520q-23 -49 -45 -84.5t-55 -71.5t-77 -55t-97 -19q-54 0 -87 28t-33 68q0 49 49 90.5t145 56.5q-100 20 -100 123
q0 44 18 97.5t51.5 105.5t77 95t99.5 69.5t114 26.5zM489 502q-57 0 -116.5 -43.5t-102.5 -105.5t-70 -131.5t-27 -121.5q0 -49 26 -75.5t69 -26.5q51 0 105 46t104 148l59 123q26 53 32 94.5t-13.5 67t-65.5 25.5zM381 -20l61 132q-35 -53 -80.5 -87.5t-95.5 -34.5
q-108 -10 -163.5 -51.5t-55.5 -91.5q0 -36 31 -62.5t80 -26.5q74 0 119 48t104 174z" />
    <glyph glyph-name="Gcommaaccent" unicode="&#x122;" horiz-adv-x="820" 
d="M751 710q46 0 84.5 -10t58 -22.5l35.5 -22.5t23 -10q11 0 18 15l18 40h8l-81 -175h-8l2 10q8 28 8 55q0 112 -170 112q-93 0 -187.5 -52.5t-163.5 -130.5t-112.5 -170.5t-43.5 -170.5q0 -83 47.5 -131.5t131.5 -48.5q230 0 329 212l48 102q7 14 7 21q0 9 -23 9h-40l3 8
h190l-3 -8h-40q-20 0 -27.5 -5.5t-16.5 -24.5l-48 -102q-43 -93 -150.5 -156.5t-232.5 -63.5q-104 0 -163 54t-59 145q0 84 47.5 177t123.5 168.5t180 125.5t207 50zM377 -66q30 0 30 -31q0 -36 -34 -67.5t-75 -31.5v8q27 0 51 15t24 30q0 12 -16 24t-16 23q0 14 10 22t26 8
z" />
    <glyph glyph-name="gcommaaccent" unicode="&#x123;" horiz-adv-x="555" 
d="M509 560q-30 0 -30 31q0 36 34 67.5t75 31.5v-8q-27 0 -50.5 -15t-23.5 -30q0 -12 15.5 -24t15.5 -23q0 -14 -10 -22t-26 -8zM491 510q55 0 75 -33.5t8 -82.5l52 106h50l-245 -520q-23 -49 -45 -84.5t-55 -71.5t-77 -55t-97 -19q-54 0 -87 28t-33 68q0 49 49 90.5
t145 56.5q-100 20 -100 123q0 44 18 97.5t51.5 105.5t77 95t99.5 69.5t114 26.5zM489 502q-57 0 -116.5 -43.5t-102.5 -105.5t-70 -131.5t-27 -121.5q0 -49 26 -75.5t69 -26.5q51 0 105 46t104 148l59 123q26 53 32 94.5t-13.5 67t-65.5 25.5zM381 -20l61 132
q-35 -53 -80.5 -87.5t-95.5 -34.5q-108 -10 -163.5 -51.5t-55.5 -91.5q0 -36 31 -62.5t80 -26.5q74 0 119 48t104 174z" />
    <glyph glyph-name="Hbar" unicode="&#x126;" horiz-adv-x="800" 
d="M1076 700l-3 -8h-40q-20 0 -27.5 -5.5t-16.5 -24.5l-68 -146h70l-6 -12h-70l-217 -466q-7 -14 -7 -21q0 -9 23 -9h40l-4 -8h-190l4 8h40q20 0 27.5 5.5t16.5 24.5l149 320h-460l-149 -320q-7 -14 -7 -21q0 -9 23 -9h40l-4 -8h-190l4 8h40q20 0 27.5 5.5t16.5 24.5
l217 466h-70l6 12h70l68 146q7 14 7 21q0 9 -23 9h-40l3 8h190l-3 -8h-40q-20 0 -27.5 -5.5t-16.5 -24.5l-68 -146h460l68 146q7 14 7 21q0 9 -23 9h-40l3 8h190zM865 504h-460l-64 -138h460z" />
    <glyph glyph-name="hbar" unicode="&#x127;" horiz-adv-x="590" 
d="M628 380l-129 -276q-20 -44 -20 -62q0 -30 30 -30q42 0 116 95v-10q-80 -107 -154 -107q-42 0 -42 44q0 31 19 70l130 276q22 46 22 82q0 40 -43 40q-72 0 -166 -92.5t-140 -191.5l-101 -214l-50 -4v4l282 601h-70l6 12h69l58 123h50l-57 -123h90l-6 -12h-90l-145 -310
q60 89 135 152t137 63q44 0 65 -19t21 -47t-17 -64z" />
    <glyph glyph-name="Imacron" unicode="&#x12a;" 
d="M643 800h-250l5 12h250zM563 692h-40q-20 0 -27.5 -5.5t-16.5 -24.5l-291 -624q-7 -14 -7 -21q0 -9 23 -9h40l-4 -8h-190l4 8h40q20 0 27.5 5.5t16.5 24.5l291 624q7 14 7 21q0 9 -23 9h-40l3 8h190z" />
    <glyph glyph-name="imacron" unicode="&#x12b;" 
d="M516 600h-250l5 12h250zM326 510q36 0 36 -35q0 -17 -10 -38l-153 -333q-20 -44 -20 -62q0 -30 30 -30q42 0 116 95v-10q-80 -107 -154 -107q-42 0 -42 44q0 31 19 70l152 329q12 24 12 38q0 20 -18 20q-29 0 -87 -57v10q69 66 119 66z" />
    <glyph glyph-name="Iogonek" unicode="&#x12e;" 
d="M566 700l-3 -8h-40q-20 0 -27.5 -5.5t-16.5 -24.5l-291 -624q-7 -14 -7 -21q0 -9 23 -9h40l-4 -8h-70q-55 -32 -100 -78.5t-45 -78.5q0 -29 34 -29t71 21l-2 -6q-40 -29 -86 -29q-50 0 -50 36q0 38 49 81.5t121 82.5h-112l4 8h40q20 0 27.5 5.5t16.5 24.5l291 624
q7 14 7 21q0 9 -23 9h-40l3 8h190z" />
    <glyph glyph-name="iogonek" unicode="&#x12f;" 
d="M410 650q14 0 21 -7.5t7 -17.5q0 -18 -15 -31.5t-36 -13.5q-27 0 -27 25q0 18 15.5 31.5t34.5 13.5zM352 437l-153 -333q-20 -44 -20 -62q0 -30 30 -30q42 0 116 95v-10q-26 -38 -72 -75t-82.5 -60t-64.5 -53t-28 -61q0 -29 34 -29t71 21l-2 -6q-40 -29 -86 -29
q-50 0 -50 36q0 35 42 71.5t123 85.5q-20 -8 -39 -8q-42 0 -42 44q0 31 19 70l152 329q12 24 12 38q0 20 -18 20q-29 0 -87 -57v10q69 66 119 66q36 0 36 -35q0 -17 -10 -38z" />
    <glyph glyph-name="Idotaccent" unicode="&#x130;" 
d="M536 850q14 0 21 -7.5t7 -17.5q0 -18 -15 -31.5t-36 -13.5q-27 0 -27 25q0 18 15.5 31.5t34.5 13.5zM563 692h-40q-20 0 -27.5 -5.5t-16.5 -24.5l-291 -624q-7 -14 -7 -21q0 -9 23 -9h40l-4 -8h-190l4 8h40q20 0 27.5 5.5t16.5 24.5l291 624q7 14 7 21q0 9 -23 9h-40l3 8
h190z" />
    <glyph glyph-name="dotlessi" unicode="&#x131;" 
d="M326 510q36 0 36 -35q0 -17 -10 -38l-153 -333q-20 -44 -20 -62q0 -30 30 -30q42 0 116 95v-10q-80 -107 -154 -107q-42 0 -42 44q0 31 19 70l152 329q12 24 12 38q0 20 -18 20q-29 0 -87 -57v10q69 66 119 66z" />
    <glyph glyph-name="IJ" unicode="&#x132;" horiz-adv-x="639" 
d="M563 692h-40q-20 0 -27.5 -5.5t-16.5 -24.5l-291 -624q-7 -14 -7 -21q0 -9 23 -9h40l-4 -8h-190l4 8h40q20 0 27.5 5.5t16.5 24.5l291 624q7 14 7 21q0 9 -23 9h-40l3 8h190zM917 692h-40q-20 0 -27.5 -5.5t-16.5 -24.5l-222 -476q-91 -196 -227 -196q-35 0 -51 14.5
t-16 34.5q0 17 11.5 31.5t30.5 14.5q16 0 16 -13q0 -12 -12.5 -28t-12.5 -27q0 -19 38 -19q45 0 83 38.5t79 127.5l233 498q7 14 7 21q0 9 -23 9h-40l3 8h190z" />
    <glyph glyph-name="ij" unicode="&#x133;" horiz-adv-x="549" 
d="M410 650q14 0 21 -7.5t7 -17.5q0 -18 -15 -31.5t-36 -13.5q-27 0 -27 25q0 18 15.5 31.5t34.5 13.5zM692 650q14 0 21 -7.5t7 -17.5q0 -18 -15 -31.5t-36 -13.5q-27 0 -27 25q0 18 15.5 31.5t34.5 13.5zM326 510q36 0 36 -35q0 -17 -10 -38l-153 -333q-20 -44 -20 -62
q0 -30 30 -30q42 0 116 95v-10q-80 -107 -154 -107q-42 0 -42 44q0 31 19 70l152 329q12 24 12 38q0 20 -18 20q-29 0 -87 -57v10q69 66 119 66zM610 510q36 0 36 -35q0 -17 -10 -38l-227 -487q-47 -101 -88.5 -150.5t-101.5 -49.5q-36 0 -55.5 17.5t-19.5 45.5q0 21 18 21
q17 0 17 -19q0 -57 40 -57q32 0 58 36t82 156l225 483q12 24 12 38q0 20 -18 20q-29 0 -87 -57v10q69 66 119 66z" />
    <glyph glyph-name="Kcommaaccent" unicode="&#x136;" horiz-adv-x="655" 
d="M563 692h-40q-20 0 -27.5 -5.5t-16.5 -24.5l-291 -624q-7 -14 -7 -21q0 -9 23 -9h40l-4 -8h-190l4 8h40q20 0 27.5 5.5t16.5 24.5l291 624q7 14 7 21q0 9 -23 9h-40l3 8h190zM923 692h-44q-33 0 -74 -30l-415 -291l183 -333q10 -18 17.5 -24t24.5 -6h39l-4 -8h-220l4 8
h55q20 0 28.5 8.5t0.5 21.5l-172 312l445 312q16 12 16 20q0 10 -17 10h-67l3 8h200zM328 -60q30 0 30 -31q0 -36 -34 -67.5t-75 -31.5v8q27 0 51 15t24 30q0 12 -16 24t-16 23q0 14 10 22t26 8z" />
    <glyph glyph-name="kcommaaccent" unicode="&#x137;" horiz-adv-x="590" 
d="M496 740l-209 -445q60 89 135 152t137 63q85 0 85 -66q0 -52 -74.5 -105.5t-172.5 -70.5q132 -12 132 -78q0 -25 -25 -79t-25 -69q0 -30 30 -30q41 0 116 95v-10q-80 -107 -154 -107q-42 0 -42 44q0 23 25 80.5t25 75.5q0 38 -26 54t-74 20l2 8q90 12 154.5 73t64.5 111
q0 46 -43 46q-72 0 -166 -92.5t-140 -191.5l-101 -214l-50 -4v4l345 736h51zM235 -60q30 0 30 -31q0 -36 -34 -67.5t-75 -31.5v8q27 0 51 15t24 30q0 12 -16 24t-16 23q0 14 10 22t26 8z" />
    <glyph glyph-name="Lacute" unicode="&#x139;" horiz-adv-x="580" 
d="M672 901q20 0 20 -21q0 -14 -13.5 -28t-43 -28.5l-51.5 -24.5t-64.5 -26l-57.5 -22v6q51 22 82 43t62 55q42 46 66 46zM563 692h-40q-20 0 -27.5 -5.5t-16.5 -24.5l-291 -624q-7 -14 -7 -21q0 -9 23 -9h216q106 0 164 126l14 30h8l-76 -164h-480l4 8h40q20 0 27.5 5.5
t16.5 24.5l291 624q7 14 7 21q0 9 -23 9h-40l3 8h190z" />
    <glyph glyph-name="lacute" unicode="&#x13a;" 
d="M670 940q20 0 20 -21q0 -14 -13.5 -28t-43 -28.5l-51.5 -24.5t-64.5 -26l-57.5 -22v6q51 22 82 43t62 55q42 46 66 46zM495 740l-296 -636q-20 -44 -20 -62q0 -30 30 -30q42 0 116 95v-10q-80 -107 -154 -107q-42 0 -42 44q0 29 19 70l297 636h50z" />
    <glyph glyph-name="Lcommaaccent" unicode="&#x13b;" horiz-adv-x="580" 
d="M563 692h-40q-20 0 -27.5 -5.5t-16.5 -24.5l-291 -624q-7 -14 -7 -21q0 -9 23 -9h216q106 0 164 126l14 30h8l-76 -164h-480l4 8h40q20 0 27.5 5.5t16.5 24.5l291 624q7 14 7 21q0 9 -23 9h-40l3 8h190zM290 -60q30 0 30 -31q0 -36 -34 -67.5t-75 -31.5v8q27 0 51 15
t24 30q0 12 -16 24t-16 23q0 14 10 22t26 8z" />
    <glyph glyph-name="lcommaaccent" unicode="&#x13c;" 
d="M495 740l-296 -636q-20 -44 -20 -62q0 -30 30 -30q42 0 116 95v-10q-80 -107 -154 -107q-42 0 -42 44q0 29 19 70l297 636h50zM120 -60q30 0 30 -31q0 -36 -34 -67.5t-75 -31.5v8q27 0 51 15t24 30q0 12 -16 24t-16 23q0 14 10 22t26 8z" />
    <glyph glyph-name="Lcaron" unicode="&#x13d;" horiz-adv-x="580" 
d="M660 710q30 0 30 -31q0 -35 -34 -67t-75 -32v8q27 0 51 15.5t24 30.5q0 12 -16 23.5t-16 22.5q0 14 10 22t26 8zM563 692h-40q-20 0 -27.5 -5.5t-16.5 -24.5l-291 -624q-7 -14 -7 -21q0 -9 23 -9h216q106 0 164 126l14 30h8l-76 -164h-480l4 8h40q20 0 27.5 5.5
t16.5 24.5l291 624q7 14 7 21q0 9 -23 9h-40l3 8h190z" />
    <glyph glyph-name="lcaron" unicode="&#x13e;" 
d="M560 750q30 0 30 -31q0 -35 -34 -67t-75 -32v8q27 0 51 15.5t24 30.5q0 12 -16 23.5t-16 22.5q0 14 10 22t26 8zM495 740l-296 -636q-20 -44 -20 -62q0 -30 30 -30q42 0 116 95v-10q-80 -107 -154 -107q-42 0 -42 44q0 29 19 70l297 636h50z" />
    <glyph glyph-name="Ldot" unicode="&#x13f;" horiz-adv-x="580" 
d="M563 692h-40q-20 0 -27.5 -5.5t-16.5 -24.5l-291 -624q-7 -14 -7 -21q0 -9 23 -9h216q106 0 164 126l14 30h8l-76 -164h-480l4 8h40q20 0 27.5 5.5t16.5 24.5l291 624q7 14 7 21q0 9 -23 9h-40l3 8h190zM496 378q14 0 21 -7.5t7 -17.5q0 -18 -15 -31.5t-36 -13.5
q-27 0 -27 25q0 18 15.5 31.5t34.5 13.5z" />
    <glyph glyph-name="ldot" unicode="&#x140;" horiz-adv-x="315" 
d="M495 740l-296 -636q-20 -44 -20 -62q0 -30 30 -30q42 0 116 95v-10q-80 -107 -154 -107q-42 0 -42 44q0 29 19 70l297 636h50zM411 378q14 0 21 -7.5t7 -17.5q0 -18 -15 -31.5t-36 -13.5q-27 0 -27 25q0 18 15.5 31.5t34.5 13.5z" />
    <glyph glyph-name="Lslash" unicode="&#x141;" horiz-adv-x="580" 
d="M606 164l-76 -164h-480l4 8h40q20 0 27.5 5.5t16.5 24.5l131 280l-82 -24l6 12l81 24l155 332q7 14 7 21q0 9 -23 9h-40l3 8h190l-3 -8h-40q-20 0 -27.5 -5.5t-16.5 -24.5l-147 -315l197 59l-5 -12l-197 -59l-139 -297q-7 -14 -7 -21q0 -9 23 -9h216q106 0 164 126l14 30
h8z" />
    <glyph glyph-name="lslash" unicode="&#x142;" horiz-adv-x="250" 
d="M322 369l87 37l-5 -12l-87 -37l-118 -253q-20 -44 -20 -62q0 -30 30 -30q42 0 116 95v-10q-80 -107 -154 -107q-42 0 -42 44q0 29 19 70l106 227l-87 -37l6 12l86 37l186 397h50z" />
    <glyph glyph-name="Nacute" unicode="&#x143;" horiz-adv-x="730" 
d="M891 900q20 0 20 -21q0 -14 -13.5 -28t-43 -28.5l-51.5 -24.5t-64.5 -26l-57.5 -22v6q51 22 82 43t62 55q42 46 66 46zM1013 692h-38q-20 -1 -27.5 -6t-16.5 -24l-309 -667h-8l-186 670l-294 -627q-7 -14 -7 -21q0 -9 23 -9h40l-4 -8h-146l4 8h38q20 0 27.5 5.5
t16.5 24.5l291 624q7 14 7 21q0 9 -23 9h-38l3 8h102l178 -637l277 599q7 14 7 21q0 9 -23 9h-38l3 8h144z" />
    <glyph glyph-name="nacute" unicode="&#x144;" horiz-adv-x="590" 
d="M680 700q20 0 20 -21q0 -14 -13.5 -28t-43 -28.5l-51.5 -24.5t-64.5 -26l-57.5 -22v6q51 22 82 43t62 55q42 46 66 46zM559 510q44 0 65 -19t21 -47t-17 -64l-129 -276q-20 -44 -20 -62q0 -30 30 -30q42 0 116 95v-10q-80 -107 -154 -107q-42 0 -42 44q0 31 19 70
l130 276q22 46 22 82q0 40 -43 40q-72 0 -166 -92.5t-140 -191.5l-101 -214l-50 -4v4l200 429q12 24 12 38q0 20 -18 20q-29 0 -87 -57v10q69 66 119 66q36 0 36 -35q0 -17 -10 -38l-65 -142q60 89 135 152t137 63z" />
    <glyph glyph-name="Ncommaaccent" unicode="&#x145;" horiz-adv-x="730" 
d="M1013 692h-38q-20 -1 -27.5 -6t-16.5 -24l-309 -667h-8l-186 670l-294 -627q-7 -14 -7 -21q0 -9 23 -9h40l-4 -8h-146l4 8h38q20 0 27.5 5.5t16.5 24.5l291 624q7 14 7 21q0 9 -23 9h-38l3 8h102l178 -637l277 599q7 14 7 21q0 9 -23 9h-38l3 8h144zM355 -60q30 0 30 -31
q0 -36 -34 -67.5t-75 -31.5v8q27 0 51 15t24 30q0 12 -16 24t-16 23q0 14 10 22t26 8z" />
    <glyph glyph-name="ncommaaccent" unicode="&#x146;" horiz-adv-x="590" 
d="M559 510q44 0 65 -19t21 -47t-17 -64l-129 -276q-20 -44 -20 -62q0 -30 30 -30q42 0 116 95v-10q-80 -107 -154 -107q-42 0 -42 44q0 31 19 70l130 276q22 46 22 82q0 40 -43 40q-72 0 -166 -92.5t-140 -191.5l-101 -214l-50 -4v4l200 429q12 24 12 38q0 20 -18 20
q-29 0 -87 -57v10q69 66 119 66q36 0 36 -35q0 -17 -10 -38l-65 -142q60 89 135 152t137 63zM265 -60q30 0 30 -31q0 -36 -34 -67.5t-75 -31.5v8q27 0 51 15t24 30q0 12 -16 24t-16 23q0 14 10 22t26 8z" />
    <glyph glyph-name="Ncaron" unicode="&#x147;" horiz-adv-x="730" 
d="M932 900l1 -8q-46 -20 -111.5 -65.5t-102.5 -78.5h-9q-7 34 -29 80t-50 66l5 6q66 -36 98 -87q56 35 198 87zM1013 692h-38q-20 -1 -27.5 -6t-16.5 -24l-309 -667h-8l-186 670l-294 -627q-7 -14 -7 -21q0 -9 23 -9h40l-4 -8h-146l4 8h38q20 0 27.5 5.5t16.5 24.5l291 624
q7 14 7 21q0 9 -23 9h-38l3 8h102l178 -637l277 599q7 14 7 21q0 9 -23 9h-38l3 8h144z" />
    <glyph glyph-name="ncaron" unicode="&#x148;" horiz-adv-x="590" 
d="M721 700l1 -8q-46 -20 -111.5 -65.5t-102.5 -78.5h-9q-7 34 -29 80t-50 66l5 6q66 -36 98 -87q56 35 198 87zM559 510q44 0 65 -19t21 -47t-17 -64l-129 -276q-20 -44 -20 -62q0 -30 30 -30q42 0 116 95v-10q-80 -107 -154 -107q-42 0 -42 44q0 31 19 70l130 276
q22 46 22 82q0 40 -43 40q-72 0 -166 -92.5t-140 -191.5l-101 -214l-50 -4v4l200 429q12 24 12 38q0 20 -18 20q-29 0 -87 -57v10q69 66 119 66q36 0 36 -35q0 -17 -10 -38l-65 -142q60 89 135 152t137 63z" />
    <glyph glyph-name="Eng" unicode="&#x14a;" horiz-adv-x="730" 
d="M1016 700l-3 -8h-38q-20 -1 -27.5 -6t-16.5 -24l-309 -663l-39 -83q-38 -82 -98.5 -124t-118.5 -42q-30 0 -46 10.5t-16 26.5q0 13 11 25.5t28 12.5q18 0 18 -14q0 -9 -11 -22t-11 -19q0 -12 31 -12q55 0 111.5 40t93.5 118l39 84l-186 665l-294 -627q-7 -14 -7 -21
q0 -9 23 -9h40l-4 -8h-146l4 8h38q20 0 27.5 5.5t16.5 24.5l291 624q7 14 7 21q0 9 -23 9h-38l3 8h102l177 -634l278 596q7 14 7 21q0 9 -23 9h-38l3 8h144z" />
    <glyph glyph-name="eng" unicode="&#x14b;" horiz-adv-x="555" 
d="M559 510q44 0 65 -19t21 -47t-17 -64l-203 -430q-48 -101 -89 -150.5t-101 -49.5q-36 0 -55.5 17.5t-19.5 45.5q0 21 18 21q17 0 17 -19q0 -57 40 -57q32 0 57.5 36t82.5 156l203 430q22 46 22 82q0 40 -43 40q-72 0 -166 -92.5t-140 -191.5l-101 -214l-50 -4v4l200 429
q12 24 12 38q0 20 -18 20q-29 0 -87 -57v10q69 66 119 66q36 0 36 -35q0 -17 -10 -38l-65 -142q60 89 135 152t137 63z" />
    <glyph glyph-name="Omacron" unicode="&#x14c;" horiz-adv-x="840" 
d="M918 800h-250l5 12h250zM751 710q104 0 163.5 -54t59.5 -145q0 -82 -48 -175t-124.5 -169.5t-180.5 -126.5t-206 -50q-104 0 -163 54t-59 145q0 84 47.5 177t123.5 168.5t180 125.5t207 50zM747 702q-93 0 -187.5 -52.5t-163.5 -130.5t-112.5 -170.5t-43.5 -170.5
q0 -83 47.5 -131.5t131.5 -48.5q93 0 188 53t164 131.5t112.5 171t43.5 169.5q0 83 -47.5 131t-132.5 48z" />
    <glyph glyph-name="omacron" unicode="&#x14d;" horiz-adv-x="575" 
d="M680 600h-250l5 12h250zM510 510q71 0 105.5 -32.5t34.5 -89.5q0 -45 -18 -98.5t-53 -106t-80 -96t-105.5 -70.5t-123.5 -27q-71 0 -105.5 32.5t-34.5 88.5t29 124.5t77.5 130t122 103t151.5 41.5zM508 502q-85 0 -165.5 -73.5t-125.5 -167.5t-45 -166q0 -97 100 -97
q64 0 128 44t108 107t72 132.5t28 122.5q0 47 -25.5 72.5t-74.5 25.5z" />
    <glyph glyph-name="Ohungarumlaut" unicode="&#x150;" horiz-adv-x="840" 
d="M887 900q19 0 19 -20q0 -14 -13 -27.5t-43.5 -29t-51 -24.5t-65.5 -26.5t-57 -22.5v6q51 22 82 43t62 55q42 46 67 46zM1037 900q19 0 19 -20q0 -14 -13 -27.5t-43.5 -29t-51 -24.5t-65.5 -26.5t-57 -22.5v6q51 22 82 43t62 55q42 46 67 46zM751 710q104 0 163.5 -54
t59.5 -145q0 -82 -48 -175t-124.5 -169.5t-180.5 -126.5t-206 -50q-104 0 -163 54t-59 145q0 84 47.5 177t123.5 168.5t180 125.5t207 50zM747 702q-93 0 -187.5 -52.5t-163.5 -130.5t-112.5 -170.5t-43.5 -170.5q0 -83 47.5 -131.5t131.5 -48.5q93 0 188 53t164 131.5
t112.5 171t43.5 169.5q0 83 -47.5 131t-132.5 48z" />
    <glyph glyph-name="ohungarumlaut" unicode="&#x151;" horiz-adv-x="575" 
d="M649 700q19 0 19 -20q0 -14 -13 -27.5t-43.5 -29t-51 -24.5t-65.5 -26.5t-57 -22.5v6q51 22 82 43t62 55q42 46 67 46zM799 700q19 0 19 -20q0 -14 -13 -27.5t-43.5 -29t-51 -24.5t-65.5 -26.5t-57 -22.5v6q51 22 82 43t62 55q42 46 67 46zM510 510q71 0 105.5 -32.5
t34.5 -89.5q0 -45 -18 -98.5t-53 -106t-80 -96t-105.5 -70.5t-123.5 -27q-71 0 -105.5 32.5t-34.5 88.5t29 124.5t77.5 130t122 103t151.5 41.5zM508 502q-85 0 -165.5 -73.5t-125.5 -167.5t-45 -166q0 -97 100 -97q64 0 128 44t108 107t72 132.5t28 122.5q0 47 -25.5 72.5
t-74.5 25.5z" />
    <glyph glyph-name="OE" unicode="&#x152;" horiz-adv-x="1245" 
d="M1476 700l-76 -164h-8l14 30q21 43 21 74q0 52 -68 52h-236q-20 0 -27.5 -5.5t-16.5 -24.5l-140 -300h166q106 0 147 88l14 30h8l-114 -244h-8l14 30q12 26 12 43q0 45 -77 45h-166l-4 -10l-143 -306q-7 -14 -7 -21q0 -9 23 -9h261q106 0 164 126l14 30h8l-76 -164h-455
l75 162q-81 -78 -180 -125t-200 -47q-104 0 -163 54t-59 145q0 84 47.5 177t123.5 168.5t180 125.5t207 50q95 0 153 -45t68 -124l74 159h430zM419 -2q93 0 188 53t164 131.5t112.5 171t43.5 169.5q0 83 -47.5 131t-132.5 48q-93 0 -187.5 -52.5t-163.5 -130.5
t-112.5 -170.5t-43.5 -170.5q0 -83 47.5 -131.5t131.5 -48.5z" />
    <glyph glyph-name="oe" unicode="&#x153;" horiz-adv-x="873" 
d="M978 453q0 -46 -95 -104.5t-270 -102.5q-35 -80 -35 -147q0 -100 90 -100q104 0 184 110v-10q-80 -109 -184 -109q-66 0 -100.5 35t-34.5 98v1q-118 -134 -265 -134q-71 0 -105.5 32.5t-34.5 88.5t29 124.5t77.5 130t122 103t151.5 41.5q71 0 105.5 -32.5t34.5 -89.5v-13
q53 61 118 98t132 37q37 0 58.5 -15.5t21.5 -41.5zM270 -2q64 0 128 44t108 107t72 132.5t28 122.5q0 47 -25.5 72.5t-74.5 25.5q-85 0 -165.5 -73.5t-125.5 -167.5t-45 -166q0 -97 100 -97zM898 502q-73 0 -153 -73t-127 -174q157 39 243 96t86 104q0 21 -13.5 34t-35.5 13
z" />
    <glyph glyph-name="Racute" unicode="&#x154;" horiz-adv-x="680" 
d="M856 900q20 0 20 -21q0 -14 -13.5 -28t-43 -28.5l-51.5 -24.5t-64.5 -26l-57.5 -22v6q51 22 82 43t62 55q42 46 66 46zM376 700h265q170 0 170 -118q0 -89 -79.5 -167t-205.5 -94q80 -17 80 -99q0 -20 -13.5 -79.5t-13.5 -86.5q0 -55 53 -55q17 0 47 7l-4 -8
q-47 -10 -69 -10q-73 0 -73 70q0 28 13.5 90.5t13.5 86.5q0 44 -22 62.5t-65 18.5h-155l-130 -280q-7 -14 -7 -21q0 -9 23 -9h40l-4 -8h-190l4 8h40q20 0 27.5 5.5t16.5 24.5l291 624q7 14 7 21q0 9 -23 9h-40zM322 326h155q121 1 205.5 85.5t84.5 181.5q0 99 -129 99h-145z
" />
    <glyph glyph-name="racute" unicode="&#x155;" horiz-adv-x="370" 
d="M608 700q20 0 20 -21q0 -14 -13.5 -28t-43 -28.5l-51.5 -24.5t-64.5 -26l-57.5 -22v6q51 22 82 43t62 55q42 46 66 46zM520 510q30 0 30 -26q0 -13 -9.5 -20t-20.5 -7q-8 0 -26 5t-30 5q-45 0 -106.5 -77t-106.5 -172l-101 -214l-50 -4v4l200 429q12 24 12 38
q0 20 -18 20q-30 0 -87 -57v10q66 65 119 65q36 0 36 -34q0 -14 -9.5 -38t-56.5 -123q52 85 112 140.5t112 55.5z" />
    <glyph glyph-name="Rcommaaccent" unicode="&#x156;" horiz-adv-x="680" 
d="M811 582q0 -89 -79.5 -167t-205.5 -94q80 -17 80 -99q0 -20 -13.5 -79.5t-13.5 -86.5q0 -55 53 -55q17 0 47 7l-4 -8q-47 -10 -69 -10q-73 0 -73 70q0 28 13.5 90.5t13.5 86.5q0 44 -22 62.5t-65 18.5h-155l-130 -280q-7 -14 -7 -21q0 -9 23 -9h40l-4 -8h-190l4 8h40
q20 0 27.5 5.5t16.5 24.5l291 624q7 14 7 21q0 9 -23 9h-40l3 8h265q170 0 170 -118zM322 326h155q121 1 205.5 85.5t84.5 181.5q0 99 -129 99h-145zM365 -60q30 0 30 -31q0 -36 -34 -67.5t-75 -31.5v8q27 0 51 15t24 30q0 12 -16 24t-16 23q0 14 10 22t26 8z" />
    <glyph glyph-name="rcommaaccent" unicode="&#x157;" horiz-adv-x="370" 
d="M520 510q30 0 30 -26q0 -13 -9.5 -20t-20.5 -7q-8 0 -26 5t-30 5q-45 0 -106.5 -77t-106.5 -172l-101 -214l-50 -4v4l200 429q12 24 12 38q0 20 -18 20q-30 0 -87 -57v10q66 65 119 65q36 0 36 -34q0 -14 -9.5 -38t-56.5 -123q52 85 112 140.5t112 55.5zM85 -60
q30 0 30 -31q0 -36 -34 -67.5t-75 -31.5v8q27 0 51 15t24 30q0 12 -16 24t-16 23q0 14 10 22t26 8z" />
    <glyph glyph-name="Rcaron" unicode="&#x158;" horiz-adv-x="680" 
d="M684 748h-9q-7 34 -29 80t-50 66l5 6q66 -36 98 -87q56 35 198 87l1 -8q-46 -20 -111.5 -65.5t-102.5 -78.5zM376 700h265q170 0 170 -118q0 -89 -79.5 -167t-205.5 -94q80 -17 80 -99q0 -20 -13.5 -79.5t-13.5 -86.5q0 -55 53 -55q17 0 47 7l-4 -8q-47 -10 -69 -10
q-73 0 -73 70q0 28 13.5 90.5t13.5 86.5q0 44 -22 62.5t-65 18.5h-155l-130 -280q-7 -14 -7 -21q0 -9 23 -9h40l-4 -8h-190l4 8h40q20 0 27.5 5.5t16.5 24.5l291 624q7 14 7 21q0 9 -23 9h-40zM322 326h155q121 1 205.5 85.5t84.5 181.5q0 99 -129 99h-145z" />
    <glyph glyph-name="rcaron" unicode="&#x159;" horiz-adv-x="370" 
d="M649 700l1 -8q-46 -20 -111.5 -65.5t-102.5 -78.5h-9q-7 34 -29 80t-50 66l5 6q66 -36 98 -87q56 35 198 87zM520 510q30 0 30 -26q0 -13 -9.5 -20t-20.5 -7q-8 0 -26 5t-30 5q-45 0 -106.5 -77t-106.5 -172l-101 -214l-50 -4v4l200 429q12 24 12 38q0 20 -18 20
q-30 0 -87 -57v10q66 65 119 65q36 0 36 -34q0 -14 -9.5 -38t-56.5 -123q52 85 112 140.5t112 55.5z" />
    <glyph glyph-name="Sacute" unicode="&#x15a;" horiz-adv-x="550" 
d="M787 899q20 0 20 -21q0 -14 -13.5 -28t-43 -28.5l-51.5 -24.5t-64.5 -26l-57.5 -22v6q51 22 82 43t62 55q42 46 66 46zM560 710q48 0 87 -16t63 -32.5t33 -16.5q11 0 18 15l18 40h8l-81 -175h-8l2 10q11 42 11 73q0 43 -48 68.5t-105 25.5q-45 0 -80.5 -11t-56 -27.5
t-34 -38.5t-18 -42t-4.5 -41q0 -42 23.5 -78t56.5 -63.5l66.5 -55.5t57 -65t23.5 -80q0 -86 -76.5 -148t-200.5 -62q-43 0 -82.5 10t-62 22.5l-40.5 22.5t-25 10q-11 0 -18 -15l-19 -40h-8l82 175h8l-3 -10q-11 -41 -11 -70q0 -45 53 -71t128 -26q62 0 108.5 18t71.5 46.5
t37 58t12 58.5q0 42 -23.5 78.5t-57 65l-66.5 56.5t-56.5 65t-23.5 79q0 80 65.5 133.5t175.5 53.5z" />
    <glyph glyph-name="sacute" unicode="&#x15b;" horiz-adv-x="448" 
d="M603 700q20 0 20 -21q0 -14 -13.5 -28t-43 -28.5l-51.5 -24.5t-64.5 -26l-57.5 -22v6q51 22 82 43t62 55q42 46 66 46zM411 510q58 0 101.5 -22t43.5 -61q0 -13 -9 -18t-17.5 -0.5t-8.5 16.5q0 77 -112 77q-60 0 -102.5 -30.5t-42.5 -77.5q0 -33 21 -58.5t51 -43
l60 -34.5t51 -43.5t21 -61.5q0 -55 -35.5 -94t-81.5 -54t-94 -15q-57 0 -110.5 22.5t-53.5 60.5q0 13 8.5 18t17.5 0.5t9 -16.5q0 -31 24.5 -49.5t50.5 -23t56 -4.5q64 0 116.5 35.5t52.5 89.5q0 34 -21 59.5t-51 43l-60 34.5t-51 44t-21 62q0 68 56 106t131 38z" />
    <glyph glyph-name="Scedilla" unicode="&#x15e;" horiz-adv-x="550" 
d="M787 700l-81 -175h-8l2 10q11 42 11 73q0 43 -48 68.5t-105 25.5q-45 0 -80.5 -11t-56 -27.5t-34 -38.5t-18 -42t-4.5 -41q0 -42 23.5 -78t56.5 -63.5l66.5 -55.5t57 -65t23.5 -80q0 -85 -75 -147t-198 -63l-24 -51q32 -1 52.5 -16t20.5 -44q0 -40 -40.5 -66t-98.5 -26
q-37 0 -59 12l6 8q20 -12 53 -12q51 0 80 24.5t29 58.5q0 54 -55 53l28 59q-54 0 -100.5 16.5t-72.5 32.5t-33 16q-11 0 -18 -15l-19 -40h-8l82 175h8l-3 -10q-11 -41 -11 -70q0 -45 53 -71t128 -26q62 0 108.5 18t71.5 46.5t37 58t12 58.5q0 42 -23.5 78.5t-57 65
l-66.5 56.5t-56.5 65t-23.5 79q0 80 65.5 133.5t175.5 53.5q48 0 87 -16t63 -32.5t33 -16.5q11 0 18 15l18 40h8z" />
    <glyph glyph-name="scedilla" unicode="&#x15f;" horiz-adv-x="448" 
d="M411 510q58 0 101.5 -22t43.5 -61q0 -13 -9 -18t-17.5 -0.5t-8.5 16.5q0 77 -112 77q-60 0 -102.5 -30.5t-42.5 -77.5q0 -33 21 -58.5t51 -43l60 -34.5t51 -43.5t21 -61.5q0 -55 -35 -93.5t-80 -53.5t-93 -16l-25 -54q32 -1 52.5 -16t20.5 -44q0 -40 -40.5 -66t-98.5 -26
q-37 0 -59 12l6 8q20 -12 53 -12q51 0 80 24.5t29 58.5q0 54 -55 53l29 62q-57 1 -108 23t-51 60q0 13 8.5 18t17.5 0.5t9 -16.5q0 -31 24.5 -49.5t50.5 -23t56 -4.5q64 0 116.5 35.5t52.5 89.5q0 34 -21 59.5t-51 43l-60 34.5t-51 44t-21 62q0 68 56 106t131 38z" />
    <glyph glyph-name="Scaron" unicode="&#x160;" horiz-adv-x="550" 
d="M828 899l1 -8q-46 -20 -111.5 -65.5t-102.5 -78.5h-9q-7 34 -29 80t-50 66l5 6q66 -36 98 -87q56 35 198 87zM560 710q48 0 87 -16t63 -32.5t33 -16.5q11 0 18 15l18 40h8l-81 -175h-8l2 10q11 42 11 73q0 43 -48 68.5t-105 25.5q-45 0 -80.5 -11t-56 -27.5t-34 -38.5
t-18 -42t-4.5 -41q0 -42 23.5 -78t56.5 -63.5l66.5 -55.5t57 -65t23.5 -80q0 -86 -76.5 -148t-200.5 -62q-43 0 -82.5 10t-62 22.5l-40.5 22.5t-25 10q-11 0 -18 -15l-19 -40h-8l82 175h8l-3 -10q-11 -41 -11 -70q0 -45 53 -71t128 -26q62 0 108.5 18t71.5 46.5t37 58
t12 58.5q0 42 -23.5 78.5t-57 65l-66.5 56.5t-56.5 65t-23.5 79q0 80 65.5 133.5t175.5 53.5z" />
    <glyph glyph-name="scaron" unicode="&#x161;" horiz-adv-x="448" 
d="M643 700l1 -8q-46 -20 -111.5 -65.5t-102.5 -78.5h-9q-7 34 -29 80t-50 66l5 6q66 -36 98 -87q56 35 198 87zM411 510q58 0 101.5 -22t43.5 -61q0 -13 -9 -18t-17.5 -0.5t-8.5 16.5q0 77 -112 77q-60 0 -102.5 -30.5t-42.5 -77.5q0 -33 21 -58.5t51 -43l60 -34.5
t51 -43.5t21 -61.5q0 -55 -35.5 -94t-81.5 -54t-94 -15q-57 0 -110.5 22.5t-53.5 60.5q0 13 8.5 18t17.5 0.5t9 -16.5q0 -31 24.5 -49.5t50.5 -23t56 -4.5q64 0 116.5 35.5t52.5 89.5q0 34 -21 59.5t-51 43l-60 34.5t-51 44t-21 62q0 68 56 106t131 38z" />
    <glyph glyph-name="Tcedilla" unicode="&#x162;" horiz-adv-x="650" 
d="M926 700l-76 -164h-8l14 30q21 43 21 74q0 52 -68 52h-106q-20 0 -27.5 -5.5t-16.5 -24.5l-291 -624q-7 -14 -7 -21q0 -9 23 -9h40l-4 -8h-81l-27 -58q32 -1 52.5 -16t20.5 -44q0 -40 -40.5 -66t-98.5 -26q-36 0 -59 12l6 8q20 -12 53 -12q51 0 80 24.5t29 58.5
q0 54 -55 53l31 66h-101l4 8h40q20 0 27.5 5.5t16.5 24.5l291 624q7 14 7 21q0 9 -23 9h-106q-107 0 -165 -126l-14 -30h-8l76 164h550z" />
    <glyph glyph-name="tcedilla" unicode="&#x163;" horiz-adv-x="285" 
d="M503 500l-5 -12h-130l-179 -384q-20 -44 -20 -62q0 -30 30 -30q42 0 116 95v-10q-78 -104 -149 -107l-21 -44q32 -1 52.5 -16t20.5 -44q0 -40 -40.5 -66t-98.5 -26q-37 0 -59 12l6 8q20 -12 53 -12q51 0 80 24.5t29 58.5q0 54 -55 53l24 52q-38 2 -38 44q0 28 19 70
l180 384h-70l5 12h70l47 100l60 30h4l-61 -130h130z" />
    <glyph glyph-name="Tcaron" unicode="&#x164;" horiz-adv-x="650" 
d="M892 900l1 -8q-46 -20 -111.5 -65.5t-102.5 -78.5h-9q-7 34 -29 80t-50 66l5 6q66 -36 98 -87q56 35 198 87zM850 536h-8l14 30q21 43 21 74q0 52 -68 52h-106q-20 0 -27.5 -5.5t-16.5 -24.5l-291 -624q-7 -14 -7 -21q0 -9 23 -9h40l-4 -8h-190l4 8h40q20 0 27.5 5.5
t16.5 24.5l291 624q7 14 7 21q0 9 -23 9h-106q-107 0 -165 -126l-14 -30h-8l76 164h550z" />
    <glyph glyph-name="tcaron" unicode="&#x165;" horiz-adv-x="285" 
d="M540 710q30 0 30 -31q0 -35 -34 -67t-75 -32v8q27 0 51 15.5t24 30.5q0 12 -16 23.5t-16 22.5q0 14 10 22t26 8zM373 500h130l-5 -12h-130l-179 -384q-20 -44 -20 -62q0 -30 30 -30q42 0 116 95v-10q-80 -107 -154 -107q-42 0 -42 44q0 28 19 70l180 384h-70l5 12h70
l47 100l60 30h4z" />
    <glyph glyph-name="Tbar" unicode="&#x166;" horiz-adv-x="650" 
d="M926 700l-76 -164h-8l14 30q21 43 21 74q0 52 -68 52h-106q-20 0 -27.5 -5.5t-16.5 -24.5l-143 -306h100l-6 -12h-99l-143 -306q-7 -14 -7 -21q0 -9 23 -9h40l-4 -8h-190l4 8h40q20 0 27.5 5.5t16.5 24.5l143 306h-101l6 12h100l143 306q7 14 7 21q0 9 -23 9h-106
q-107 0 -165 -126l-14 -30h-8l76 164h550z" />
    <glyph glyph-name="tbar" unicode="&#x167;" horiz-adv-x="285" 
d="M368 488l-84 -181h129l-5 -12h-130l-89 -191q-20 -44 -20 -62q0 -30 30 -30q42 0 116 95v-10q-80 -107 -154 -107q-42 0 -42 44q0 28 19 70l90 191h-70l5 12h70l85 181h-70l5 12h70l47 100l60 30h4l-61 -130h130l-5 -12h-130z" />
    <glyph glyph-name="Umacron" unicode="&#x16a;" horiz-adv-x="715" 
d="M863 800h-250l5 12h250zM1003 692h-38q-20 0 -27.5 -5.5t-16.5 -24.5l-204 -437q-39 -83 -101 -138t-125 -76t-131 -21q-184 0 -184 120q0 52 36 130l197 422q7 14 7 21q0 9 -23 9h-40l3 8h190l-3 -8h-40q-20 0 -27.5 -5.5t-16.5 -24.5l-204 -437q-35 -76 -35 -126
q0 -101 144 -101q103 0 196.5 54.5t148.5 172.5l204 437q7 14 7 21q0 9 -23 9h-38l3 8h144z" />
    <glyph glyph-name="umacron" unicode="&#x16b;" horiz-adv-x="590" 
d="M675 600h-250l5 12h250zM309 510q42 0 42 -44q0 -31 -19 -70l-130 -276q-22 -46 -22 -82q0 -40 43 -40q72 0 166 92.5t140 191.5l101 214l50 4v-4l-182 -392q-20 -44 -20 -62q0 -30 30 -30q42 0 116 95v-10q-80 -107 -154 -107q-42 0 -42 44q0 31 19 70l47 102
q-60 -90 -135.5 -153t-137.5 -63q-44 0 -65 19t-21 47t17 64l129 276q20 44 20 62q0 30 -30 30q-43 0 -116 -95v11q79 106 154 106z" />
    <glyph glyph-name="Uring" unicode="&#x16e;" horiz-adv-x="715" 
d="M807 980q-65 0 -110.5 -38t-45.5 -93q0 -35 22 -57t61 -22q65 0 110.5 38t45.5 93q0 35 -22 57t-61 22zM740 782q-76 0 -76 70q0 46 40.5 81t96.5 35q76 0 76 -70q0 -46 -40.5 -81t-96.5 -35zM1003 692h-38q-20 0 -27.5 -5.5t-16.5 -24.5l-204 -437q-39 -83 -101 -138
t-125 -76t-131 -21q-184 0 -184 120q0 52 36 130l197 422q7 14 7 21q0 9 -23 9h-40l3 8h190l-3 -8h-40q-20 0 -27.5 -5.5t-16.5 -24.5l-204 -437q-35 -76 -35 -126q0 -101 144 -101q103 0 196.5 54.5t148.5 172.5l204 437q7 14 7 21q0 9 -23 9h-38l3 8h144z" />
    <glyph glyph-name="uring" unicode="&#x16f;" horiz-adv-x="590" 
d="M619 780q-65 0 -110.5 -38t-45.5 -93q0 -35 22 -57t61 -22q65 0 110.5 38t45.5 93q0 35 -22 57t-61 22zM552 582q-76 0 -76 70q0 46 40.5 81t96.5 35q76 0 76 -70q0 -46 -40.5 -81t-96.5 -35zM309 510q42 0 42 -44q0 -31 -19 -70l-130 -276q-22 -46 -22 -82q0 -40 43 -40
q72 0 166 92.5t140 191.5l101 214l50 4v-4l-182 -392q-20 -44 -20 -62q0 -30 30 -30q42 0 116 95v-10q-80 -107 -154 -107q-42 0 -42 44q0 31 19 70l47 102q-60 -90 -135.5 -153t-137.5 -63q-44 0 -65 19t-21 47t17 64l129 276q20 44 20 62q0 30 -30 30q-43 0 -116 -95v11
q79 106 154 106z" />
    <glyph glyph-name="Uhungarumlaut" unicode="&#x170;" horiz-adv-x="715" 
d="M832 900q19 0 19 -20q0 -14 -13 -27.5t-43.5 -29t-51 -24.5t-65.5 -26.5t-57 -22.5v6q51 22 82 43t62 55q42 46 67 46zM982 900q19 0 19 -20q0 -14 -13 -27.5t-43.5 -29t-51 -24.5t-65.5 -26.5t-57 -22.5v6q51 22 82 43t62 55q42 46 67 46zM1003 692h-38
q-20 0 -27.5 -5.5t-16.5 -24.5l-204 -437q-39 -83 -101 -138t-125 -76t-131 -21q-184 0 -184 120q0 52 36 130l197 422q7 14 7 21q0 9 -23 9h-40l3 8h190l-3 -8h-40q-20 0 -27.5 -5.5t-16.5 -24.5l-204 -437q-35 -76 -35 -126q0 -101 144 -101q103 0 196.5 54.5t148.5 172.5
l204 437q7 14 7 21q0 9 -23 9h-38l3 8h144z" />
    <glyph glyph-name="uhungarumlaut" unicode="&#x171;" horiz-adv-x="590" 
d="M644 700q19 0 19 -20q0 -14 -13 -27.5t-43.5 -29t-51 -24.5t-65.5 -26.5t-57 -22.5v6q51 22 82 43t62 55q42 46 67 46zM794 700q19 0 19 -20q0 -14 -13 -27.5t-43.5 -29t-51 -24.5t-65.5 -26.5t-57 -22.5v6q51 22 82 43t62 55q42 46 67 46zM309 510q42 0 42 -44
q0 -31 -19 -70l-130 -276q-22 -46 -22 -82q0 -40 43 -40q72 0 166 92.5t140 191.5l101 214l50 4v-4l-182 -392q-20 -44 -20 -62q0 -30 30 -30q42 0 116 95v-10q-80 -107 -154 -107q-42 0 -42 44q0 31 19 70l47 102q-60 -90 -135.5 -153t-137.5 -63q-44 0 -65 19t-21 47
t17 64l129 276q20 44 20 62q0 30 -30 30q-43 0 -116 -95v11q79 106 154 106z" />
    <glyph glyph-name="Uogonek" unicode="&#x172;" horiz-adv-x="715" 
d="M1006 700l-3 -8h-38q-20 0 -27.5 -5.5t-16.5 -24.5l-204 -437q-57 -121 -153.5 -177.5t-201.5 -57.5q-55 -32 -98.5 -78t-43.5 -77q0 -29 34 -29t71 21l-2 -6q-40 -29 -86 -29q-50 0 -50 36q0 37 48 80t118 82q-177 2 -177 120q0 52 36 130l197 422q7 14 7 21q0 9 -23 9
h-40l3 8h190l-3 -8h-40q-20 0 -27.5 -5.5t-16.5 -24.5l-204 -437q-35 -76 -35 -126q0 -101 144 -101q103 0 196.5 54.5t148.5 172.5l204 437q7 14 7 21q0 9 -23 9h-38l3 8h144z" />
    <glyph glyph-name="uogonek" unicode="&#x173;" horiz-adv-x="590" 
d="M680 496l-182 -392q-20 -44 -20 -62q0 -30 30 -30q42 0 116 95v-10q-26 -38 -72 -75t-82.5 -60t-64.5 -53t-28 -61q0 -29 34 -29t71 21l-2 -6q-40 -29 -86 -29q-50 0 -50 36q0 35 42 71.5t123 85.5q-20 -8 -39 -8q-42 0 -42 44q0 31 19 70l47 102q-60 -90 -135.5 -153
t-137.5 -63q-44 0 -65 19t-21 47t17 64l129 276q20 44 20 62q0 30 -30 30q-43 0 -116 -95v11q79 106 154 106q42 0 42 -44q0 -31 -19 -70l-130 -276q-22 -46 -22 -82q0 -40 43 -40q72 0 166 92.5t140 191.5l101 214l50 4v-4z" />
    <glyph glyph-name="Wcircumflex" unicode="&#x174;" horiz-adv-x="1020" 
d="M869 835q-54 -34 -198 -87l-1 8q47 20 113 65.5t102 78.5h9q6 -34 29.5 -80.5t50.5 -66.5l-5 -5q-67 36 -100 87zM1341 700l-3 -8h-44q-20 0 -29.5 -5t-25.5 -25l-553 -667h-8l53 478l-395 -478h-8l74 667q1 20 -4.5 25t-25.5 5h-34l3 8h206l-3 -8h-66q-16 0 -21.5 -6.5
t-7.5 -23.5l-67 -599l350 423l20 176q1 20 -4.5 25t-25.5 5h-34l3 8h206l-3 -8h-67q-16 0 -21.5 -6t-7.5 -24l-68 -602l497 600q14 17 14 24q0 8 -14 8h-64l3 8h175z" />
    <glyph glyph-name="wcircumflex" unicode="&#x175;" horiz-adv-x="817" 
d="M747 700h9q6 -34 29.5 -80.5t50.5 -66.5l-5 -5q-67 36 -100 87q-54 -34 -198 -87l-1 8q47 20 113 65.5t102 78.5zM309 510q42 0 42 -44q0 -31 -19 -70l-130 -276q-22 -46 -22 -82q0 -40 43 -40q72 0 166 92.5t140 191.5l101 214l50 4v-4l-176 -376q-22 -46 -22 -82
q0 -40 43 -40q60 0 148.5 79t151 175t62.5 146q0 21 -12.5 47t-12.5 40q0 25 25 25q30 0 30 -54q0 -67 -67.5 -179t-162.5 -199.5t-164 -87.5q-44 0 -65 19t-21 47t17 64l40 86q-60 -90 -135.5 -153t-137.5 -63q-44 0 -65 19t-21 47t17 64l129 276q20 44 20 62q0 30 -30 30
q-43 0 -116 -95v11q79 106 154 106z" />
    <glyph glyph-name="Ycircumflex" unicode="&#x176;" horiz-adv-x="670" 
d="M775 900h9q6 -34 29.5 -80.5t50.5 -66.5l-5 -5q-67 36 -100 87q-54 -34 -198 -87l-1 8q47 20 113 65.5t102 78.5zM983 692h-25q-43 0 -75 -30l-387 -371l-118 -253q-7 -14 -7 -21q0 -9 23 -9h40l-4 -8h-190l4 8h40q20 0 27.5 5.5t16.5 24.5l119 256l-39 368
q-2 18 -9.5 24t-27.5 6h-38l3 8h223l-3 -8h-70q-21 0 -26 -6.5t-3 -23.5l36 -362l376 359q19 19 19 26t-18 7h-72l3 8h185z" />
    <glyph glyph-name="ycircumflex" unicode="&#x177;" horiz-adv-x="540" 
d="M522 700h9q6 -34 29.5 -80.5t50.5 -66.5l-5 -5q-67 36 -100 87q-54 -34 -198 -87l-1 8q47 20 113 65.5t102 78.5zM587 510q30 0 30 -54t-74.5 -154.5t-257.5 -313.5q-205 -238 -314 -238q-61 0 -88 25t-27 58q0 21 18 21q17 0 17 -19q0 -43 17 -60t63 -17q111 0 309 233
l31 447q4 50 -28 50q-41 0 -116 -95v11q80 106 154 106q20 0 33.5 -17.5t11.5 -46.5l-29 -387l13 15q239 280 239 331q0 21 -13.5 43.5t-13.5 36.5q0 25 25 25z" />
    <glyph glyph-name="Ydieresis" unicode="&#x178;" horiz-adv-x="670" 
d="M671 850q14 0 21 -7.5t7 -17.5q0 -18 -15 -31.5t-36 -13.5q-27 0 -27 25q0 18 15.5 31.5t34.5 13.5zM831 850q14 0 21 -7.5t7 -17.5q0 -18 -15 -31.5t-36 -13.5q-27 0 -27 25q0 18 15.5 31.5t34.5 13.5zM983 692h-25q-43 0 -75 -30l-387 -371l-118 -253q-7 -14 -7 -21
q0 -9 23 -9h40l-4 -8h-190l4 8h40q20 0 27.5 5.5t16.5 24.5l119 256l-39 368q-2 18 -9.5 24t-27.5 6h-38l3 8h223l-3 -8h-70q-21 0 -26 -6.5t-3 -23.5l36 -362l376 359q19 19 19 26t-18 7h-72l3 8h185z" />
    <glyph glyph-name="Zacute" unicode="&#x179;" horiz-adv-x="640" 
d="M846 900q20 0 20 -21q0 -14 -13.5 -28t-43 -28.5l-51.5 -24.5t-64.5 -26l-57.5 -22v6q51 22 82 43t62 55q42 46 66 46zM883 692l-756 -684h343q106 0 164 126l14 30h8l-76 -164h-520l4 8l756 684h-303q-107 0 -165 -126l-14 -30h-8l76 164h480z" />
    <glyph glyph-name="zacute" unicode="&#x17a;" horiz-adv-x="460" 
d="M643 700q20 0 20 -21q0 -14 -13.5 -28t-43 -28.5l-51.5 -24.5t-64.5 -26l-57.5 -22v6q51 22 82 43t62 55q42 46 66 46zM630 500l-290 -256h125l-5 -12h-134l-186 -164q16 4 35 4q46 0 128.5 -36t120.5 -36q20 0 35 9.5t15 26.5t-13.5 28t-27 20.5t-13.5 22.5q0 9 6.5 15
t15.5 6q17 0 30 -24t13 -51q0 -37 -26 -65t-77 -28q-33 0 -109.5 34.5t-133.5 34.5q-43 0 -63 -17l-18 -16l-6 4l263 232h-116l5 12h125l216 191q-12 -11 -55 -11q-26 0 -100 21t-87 21q-23 0 -36 -12.5t-33 -53.5h-8q34 72 53 91t49 19q16 0 92 -22t113 -22q46 0 73 23
l18 15z" />
    <glyph glyph-name="Zdotaccent" unicode="&#x17b;" horiz-adv-x="640" 
d="M711 850q14 0 21 -7.5t7 -17.5q0 -18 -15 -31.5t-36 -13.5q-27 0 -27 25q0 18 15.5 31.5t34.5 13.5zM883 692l-756 -684h343q106 0 164 126l14 30h8l-76 -164h-520l4 8l756 684h-303q-107 0 -165 -126l-14 -30h-8l76 164h480z" />
    <glyph glyph-name="zdotaccent" unicode="&#x17c;" horiz-adv-x="460" 
d="M485 580q-27 0 -27 25q0 18 15.5 31.5t34.5 13.5q14 0 21 -7.5t7 -17.5q0 -18 -15 -31.5t-36 -13.5zM442 128q17 0 30 -24t13 -51q0 -37 -26 -65t-77 -28q-33 0 -109.5 34.5t-133.5 34.5q-43 0 -63 -17l-18 -16l-6 4l263 232h-116l5 12h125l216 191q-12 -11 -55 -11
q-26 0 -100 21t-87 21q-23 0 -36 -12.5t-33 -53.5h-8q34 72 53 91t49 19q16 0 92 -22t113 -22q46 0 73 23l18 15l6 -4l-290 -256h125l-5 -12h-134l-186 -164q16 4 35 4q46 0 128.5 -36t120.5 -36q20 0 35 9.5t15 26.5t-13.5 28t-27 20.5t-13.5 22.5q0 9 6.5 15t15.5 6z" />
    <glyph glyph-name="Zcaron" unicode="&#x17d;" horiz-adv-x="640" 
d="M887 900l1 -8q-46 -20 -111.5 -65.5t-102.5 -78.5h-9q-7 34 -29 80t-50 66l5 6q66 -36 98 -87q56 35 198 87zM883 692l-756 -684h343q106 0 164 126l14 30h8l-76 -164h-520l4 8l756 684h-303q-107 0 -165 -126l-14 -30h-8l76 164h480z" />
    <glyph glyph-name="zcaron" unicode="&#x17e;" horiz-adv-x="460" 
d="M471 548h-9q-7 34 -29 80t-50 66l5 6q66 -36 98 -87q56 35 198 87l1 -8q-46 -20 -111.5 -65.5t-102.5 -78.5zM630 500l-290 -256h125l-5 -12h-134l-186 -164q16 4 35 4q46 0 128.5 -36t120.5 -36q20 0 35 9.5t15 26.5t-13.5 28t-27 20.5t-13.5 22.5q0 9 6.5 15t15.5 6
q17 0 30 -24t13 -51q0 -37 -26 -65t-77 -28q-33 0 -109.5 34.5t-133.5 34.5q-43 0 -63 -17l-18 -16l-6 4l263 232h-116l5 12h125l216 191q-12 -11 -55 -11q-26 0 -100 21t-87 21q-23 0 -36 -12.5t-33 -53.5h-8q34 72 53 91t49 19q16 0 92 -22t113 -22q46 0 73 23l18 15z" />
    <glyph glyph-name="florin" unicode="&#x192;" horiz-adv-x="364" 
d="M665 750q24 0 37 -9.5t13 -23.5q0 -15 -13 -28.5t-30 -13.5q-16 0 -16 12q0 13 13.5 25.5t13.5 20.5q0 9 -23 9q-39 0 -68 -27.5t-63 -88.5l-73 -126h105l-5 -10h-106l-338 -594q-40 -70 -93.5 -108t-107.5 -38q-29 0 -44.5 9.5t-15.5 23.5q0 15 13 28.5t31 13.5
q15 0 15 -12q0 -11 -13 -25.5t-13 -19.5q0 -10 32 -10q39 0 68.5 27.5t63.5 88.5l352 616h-69l5 10h70l60 104q40 70 92.5 108t106.5 38z" />
    <glyph glyph-name="Scommaaccent" unicode="&#x218;" horiz-adv-x="550" 
d="M560 710q48 0 87 -16t63 -32.5t33 -16.5q11 0 18 15l18 40h8l-81 -175h-8l2 10q11 42 11 73q0 43 -48 68.5t-105 25.5q-45 0 -80.5 -11t-56 -27.5t-34 -38.5t-18 -42t-4.5 -41q0 -42 23.5 -78t56.5 -63.5l66.5 -55.5t57 -65t23.5 -80q0 -86 -76.5 -148t-200.5 -62
q-43 0 -82.5 10t-62 22.5l-40.5 22.5t-25 10q-11 0 -18 -15l-19 -40h-8l82 175h8l-3 -10q-11 -41 -11 -70q0 -45 53 -71t128 -26q62 0 108.5 18t71.5 46.5t37 58t12 58.5q0 42 -23.5 78.5t-57 65l-66.5 56.5t-56.5 65t-23.5 79q0 80 65.5 133.5t175.5 53.5zM278 -63
q30 0 30 -31q0 -36 -34 -67.5t-75 -31.5v8q27 0 51 15t24 30q0 12 -16 24t-16 23q0 14 10 22t26 8z" />
    <glyph glyph-name="scommaaccent" unicode="&#x219;" horiz-adv-x="448" 
d="M411 510q58 0 101.5 -22t43.5 -61q0 -13 -9 -18t-17.5 -0.5t-8.5 16.5q0 77 -112 77q-60 0 -102.5 -30.5t-42.5 -77.5q0 -33 21 -58.5t51 -43l60 -34.5t51 -43.5t21 -61.5q0 -55 -35.5 -94t-81.5 -54t-94 -15q-57 0 -110.5 22.5t-53.5 60.5q0 13 8.5 18t17.5 0.5t9 -16.5
q0 -31 24.5 -49.5t50.5 -23t56 -4.5q64 0 116.5 35.5t52.5 89.5q0 34 -21 59.5t-51 43l-60 34.5t-51 44t-21 62q0 68 56 106t131 38zM218 -66q30 0 30 -31q0 -36 -34 -67.5t-75 -31.5v8q27 0 51 15t24 30q0 12 -16 24t-16 23q0 14 10 22t26 8z" />
    <glyph glyph-name="Tcommaaccent" unicode="&#x21a;" horiz-adv-x="650" 
d="M850 536h-8l14 30q21 43 21 74q0 52 -68 52h-106q-20 0 -27.5 -5.5t-16.5 -24.5l-291 -624q-7 -14 -7 -21q0 -9 23 -9h40l-4 -8h-190l4 8h40q20 0 27.5 5.5t16.5 24.5l291 624q7 14 7 21q0 9 -23 9h-106q-107 0 -165 -126l-14 -30h-8l76 164h550zM295 -60q30 0 30 -31
q0 -36 -34 -67.5t-75 -31.5v8q27 0 51 15t24 30q0 12 -16 24t-16 23q0 14 10 22t26 8z" />
    <glyph glyph-name="tcommaaccent" unicode="&#x21b;" horiz-adv-x="285" 
d="M373 500h130l-5 -12h-130l-179 -384q-20 -44 -20 -62q0 -30 30 -30q42 0 116 95v-10q-80 -107 -154 -107q-42 0 -42 44q0 28 19 70l180 384h-70l5 12h70l47 100l60 30h4zM128 -56q30 0 30 -31q0 -36 -34 -67.5t-75 -31.5v8q27 0 51 15t24 30q0 12 -16 24t-16 23
q0 14 10 22t26 8z" />
    <glyph glyph-name="dotlessj" unicode="&#x237;" horiz-adv-x="265" 
d="M326 510q36 0 36 -35q0 -17 -10 -38l-227 -487q-47 -101 -88.5 -150.5t-101.5 -49.5q-36 0 -55.5 17.5t-19.5 45.5q0 21 18 21q17 0 17 -19q0 -57 40 -57q32 0 58 36t82 156l225 483q12 24 12 38q0 20 -18 20q-29 0 -87 -57v10q69 66 119 66z" />
    <glyph glyph-name="circumflex" unicode="&#x2c6;" horiz-adv-x="420" 
d="M532 700h9q6 -34 29.5 -80.5t50.5 -66.5l-5 -5q-67 36 -100 87q-54 -34 -198 -87l-1 8q47 20 113 65.5t102 78.5z" />
    <glyph glyph-name="caron" unicode="&#x2c7;" horiz-adv-x="420" 
d="M684 700l1 -8q-46 -20 -111.5 -65.5t-102.5 -78.5h-9q-7 34 -29 80t-50 66l5 6q66 -36 98 -87q56 35 198 87z" />
    <glyph glyph-name="breve" unicode="&#x2d8;" horiz-adv-x="375" 
d="M625 683h8q-41 -67 -91.5 -100t-100.5 -33q-73 0 -73 72q0 27 10 61h8q-5 -17 -5 -32q0 -61 79 -61q58 0 100 28t65 65z" />
    <glyph glyph-name="dotaccent" unicode="&#x2d9;" horiz-adv-x="190" 
d="M393 650q14 0 21 -7.5t7 -17.5q0 -18 -15 -31.5t-36 -13.5q-27 0 -27 25q0 18 15.5 31.5t34.5 13.5z" />
    <glyph glyph-name="ring" unicode="&#x2da;" 
d="M494 780q-65 0 -110.5 -38t-45.5 -93q0 -35 22 -57t61 -22q65 0 110.5 38t45.5 93q0 35 -22 57t-61 22zM427 582q-76 0 -76 70q0 46 40.5 81t96.5 35q76 0 76 -70q0 -46 -40.5 -81t-96.5 -35z" />
    <glyph glyph-name="ogonek" unicode="&#x2db;" horiz-adv-x="245" 
d="M149 0h8q-55 -32 -100 -78.5t-45 -78.5q0 -29 34 -29t71 21l-2 -6q-40 -29 -86 -29q-50 0 -50 36q0 38 49 81.5t121 82.5z" />
    <glyph glyph-name="tilde" unicode="&#x2dc;" horiz-adv-x="400" 
d="M640 661h8q-18 -38 -47 -59.5t-59 -21.5q-25 0 -65.5 23t-63.5 23q-52 0 -75 -46h-8q18 38 47.5 59.5t62.5 21.5q26 0 64 -23t62 -23q53 0 74 46z" />
    <glyph glyph-name="hungarumlaut" unicode="&#x2dd;" horiz-adv-x="440" 
d="M528 700q19 0 19 -20q0 -14 -13 -27.5t-43.5 -29t-51 -24.5t-65.5 -26.5t-57 -22.5v6q51 22 82 43t62 55q42 46 67 46zM678 700q19 0 19 -20q0 -14 -13 -27.5t-43.5 -29t-51 -24.5t-65.5 -26.5t-57 -22.5v6q51 22 82 43t62 55q42 46 67 46z" />
    <glyph glyph-name="commaaccent" unicode="&#x326;" horiz-adv-x="0" 
d="M50 -60q30 0 30 -31q0 -36 -34 -67.5t-75 -31.5v8q27 0 51 15t24 30q0 12 -16 24t-16 23q0 14 10 22t26 8z" />
    <glyph glyph-name="Delta" unicode="&#x394;" horiz-adv-x="680" 
d="M664 705l-34 -705h-580l606 705h8zM614 645l-547 -637h518z" />
    <glyph glyph-name="Omega" unicode="&#x3a9;" horiz-adv-x="840" 
d="M983 519q0 -140 -127.5 -267.5t-328.5 -167.5l-35 -76h139q55 0 98.5 34.5t69.5 91.5l14 30h8l-76 -164h-265l38 82l4 8q122 27 219 101.5t145.5 163t48.5 172.5q0 80 -50 127.5t-138 47.5q-87 0 -177 -45t-155.5 -111.5t-107.5 -146.5t-42 -149q0 -123 137 -160l-38 -82
l-4 -8h-265l76 164h8l-14 -30q-18 -39 -18 -68q0 -58 70 -58h139l35 76q-172 43 -172 178q0 74 46.5 154.5t119.5 145t171.5 106.5t194.5 42q107 0 169.5 -52t62.5 -139z" />
    <glyph glyph-name="mu" unicode="&#x3bc;" horiz-adv-x="590" 
d="M680 496l-182 -392q-20 -44 -20 -62q0 -30 30 -30q42 0 116 95v-10q-80 -107 -154 -107q-42 0 -42 44q0 31 19 70l47 102q-60 -90 -135.5 -153t-137.5 -63q-46 0 -69 23l-29 -63q-47 -101 -88.5 -150.5t-101.5 -49.5q-36 0 -55.5 17.5t-19.5 45.5q0 21 18 21q17 0 17 -19
q0 -57 40 -57q32 0 58 36t82 156l77 166l2 4l129 276q20 44 20 62q0 30 -30 30q-43 0 -116 -95v11q79 106 154 106q42 0 42 -44q0 -31 -19 -70l-130 -276l-3 -6q-19 -45 -19 -76q0 -40 43 -40q72 0 166 92.5t140 191.5l101 214l50 4v-4z" />
    <glyph glyph-name="pi" unicode="&#x3c0;" horiz-adv-x="590" 
d="M790 492h-40q-20 0 -27.5 -5.5t-16.5 -24.5l-198 -424q-7 -14 -7 -21q0 -9 23 -9h40l-4 -8h-190l4 8h40q20 0 27.5 5.5t16.5 24.5l212 454h-290l-212 -454q-7 -14 -7 -21q0 -9 23 -9h40l-4 -8h-190l4 8h40q20 0 27.5 5.5t16.5 24.5l198 424q7 14 7 21q0 9 -23 9h-40l3 8
h530z" />
    <glyph glyph-name="Wgrave" unicode="&#x1e80;" horiz-adv-x="1020" 
d="M878 756l-4 -6q-6 4 -26 16t-32.5 20.5t-27.5 21.5t-23 27t-8 28q0 15 9.5 26t25.5 11q13 0 23.5 -10.5t10.5 -35.5q0 -35 11 -56t41 -42zM1341 700l-3 -8h-44q-20 0 -29.5 -5t-25.5 -25l-553 -667h-8l53 478l-395 -478h-8l74 667q1 20 -4.5 25t-25.5 5h-34l3 8h206
l-3 -8h-66q-16 0 -21.5 -6.5t-7.5 -23.5l-67 -599l350 423l20 176q1 20 -4.5 25t-25.5 5h-34l3 8h206l-3 -8h-67q-16 0 -21.5 -6t-7.5 -24l-68 -602l497 600q14 17 14 24q0 8 -14 8h-64l3 8h175z" />
    <glyph glyph-name="wgrave" unicode="&#x1e81;" horiz-adv-x="817" 
d="M654 700q13 0 23.5 -10.5t10.5 -35.5q0 -35 11 -56t41 -42l-4 -6q-6 4 -26 16t-32.5 20.5t-27.5 21.5t-23 27t-8 28q0 15 9.5 26t25.5 11zM309 510q42 0 42 -44q0 -31 -19 -70l-130 -276q-22 -46 -22 -82q0 -40 43 -40q72 0 166 92.5t140 191.5l101 214l50 4v-4
l-176 -376q-22 -46 -22 -82q0 -40 43 -40q60 0 148.5 79t151 175t62.5 146q0 21 -12.5 47t-12.5 40q0 25 25 25q30 0 30 -54q0 -67 -67.5 -179t-162.5 -199.5t-164 -87.5q-44 0 -65 19t-21 47t17 64l40 86q-60 -90 -135.5 -153t-137.5 -63q-44 0 -65 19t-21 47t17 64
l129 276q20 44 20 62q0 30 -30 30q-43 0 -116 -95v11q79 106 154 106z" />
    <glyph glyph-name="Wacute" unicode="&#x1e82;" horiz-adv-x="1020" 
d="M1016 879q0 -14 -13.5 -28t-43 -28.5l-51.5 -24.5t-64.5 -26l-57.5 -22v6q51 22 82 43t62 55q42 46 66 46q20 0 20 -21zM1341 700l-3 -8h-44q-20 0 -29.5 -5t-25.5 -25l-553 -667h-8l53 478l-395 -478h-8l74 667q1 20 -4.5 25t-25.5 5h-34l3 8h206l-3 -8h-66
q-16 0 -21.5 -6.5t-7.5 -23.5l-67 -599l350 423l20 176q1 20 -4.5 25t-25.5 5h-34l3 8h206l-3 -8h-67q-16 0 -21.5 -6t-7.5 -24l-68 -602l497 600q14 17 14 24q0 8 -14 8h-64l3 8h175z" />
    <glyph glyph-name="wacute" unicode="&#x1e83;" horiz-adv-x="817" 
d="M858 700q20 0 20 -21q0 -14 -13.5 -28t-43 -28.5l-51.5 -24.5t-64.5 -26l-57.5 -22v6q51 22 82 43t62 55q42 46 66 46zM309 510q42 0 42 -44q0 -31 -19 -70l-130 -276q-22 -46 -22 -82q0 -40 43 -40q72 0 166 92.5t140 191.5l101 214l50 4v-4l-176 -376q-22 -46 -22 -82
q0 -40 43 -40q60 0 148.5 79t151 175t62.5 146q0 21 -12.5 47t-12.5 40q0 25 25 25q30 0 30 -54q0 -67 -67.5 -179t-162.5 -199.5t-164 -87.5q-44 0 -65 19t-21 47t17 64l40 86q-60 -90 -135.5 -153t-137.5 -63q-44 0 -65 19t-21 47t17 64l129 276q20 44 20 62q0 30 -30 30
q-43 0 -116 -95v11q79 106 154 106z" />
    <glyph glyph-name="Wdieresis" unicode="&#x1e84;" horiz-adv-x="1020" 
d="M758 780q-27 0 -27 25q0 18 15.5 31.5t34.5 13.5q14 0 21 -7.5t7 -17.5q0 -18 -15 -31.5t-36 -13.5zM918 780q-27 0 -27 25q0 18 15.5 31.5t34.5 13.5q14 0 21 -7.5t7 -17.5q0 -18 -15 -31.5t-36 -13.5zM1341 700l-3 -8h-44q-20 0 -29.5 -5t-25.5 -25l-553 -667h-8
l53 478l-395 -478h-8l74 667q1 20 -4.5 25t-25.5 5h-34l3 8h206l-3 -8h-66q-16 0 -21.5 -6.5t-7.5 -23.5l-67 -599l350 423l20 176q1 20 -4.5 25t-25.5 5h-34l3 8h206l-3 -8h-67q-16 0 -21.5 -6t-7.5 -24l-68 -602l497 600q14 17 14 24q0 8 -14 8h-64l3 8h175z" />
    <glyph glyph-name="wdieresis" unicode="&#x1e85;" horiz-adv-x="817" 
d="M643 650q14 0 21 -7.5t7 -17.5q0 -18 -15 -31.5t-36 -13.5q-27 0 -27 25q0 18 15.5 31.5t34.5 13.5zM803 650q14 0 21 -7.5t7 -17.5q0 -18 -15 -31.5t-36 -13.5q-27 0 -27 25q0 18 15.5 31.5t34.5 13.5zM309 510q42 0 42 -44q0 -31 -19 -70l-130 -276q-22 -46 -22 -82
q0 -40 43 -40q72 0 166 92.5t140 191.5l101 214l50 4v-4l-176 -376q-22 -46 -22 -82q0 -40 43 -40q60 0 148.5 79t151 175t62.5 146q0 21 -12.5 47t-12.5 40q0 25 25 25q30 0 30 -54q0 -67 -67.5 -179t-162.5 -199.5t-164 -87.5q-44 0 -65 19t-21 47t17 64l40 86
q-60 -90 -135.5 -153t-137.5 -63q-44 0 -65 19t-21 47t17 64l129 276q20 44 20 62q0 30 -30 30q-43 0 -116 -95v11q79 106 154 106z" />
    <glyph glyph-name="Ygrave" unicode="&#x1ef2;" horiz-adv-x="670" 
d="M682 900q13 0 23.5 -10.5t10.5 -35.5q0 -35 11 -56t41 -42l-4 -6q-6 4 -26 16t-32.5 20.5t-27.5 21.5t-23 27t-8 28q0 15 9.5 26t25.5 11zM983 692h-25q-43 0 -75 -30l-387 -371l-118 -253q-7 -14 -7 -21q0 -9 23 -9h40l-4 -8h-190l4 8h40q20 0 27.5 5.5t16.5 24.5
l119 256l-39 368q-2 18 -9.5 24t-27.5 6h-38l3 8h223l-3 -8h-70q-21 0 -26 -6.5t-3 -23.5l36 -362l376 359q19 19 19 26t-18 7h-72l3 8h185z" />
    <glyph glyph-name="ygrave" unicode="&#x1ef3;" horiz-adv-x="540" 
d="M429 700q13 0 23.5 -10.5t10.5 -35.5q0 -35 11 -56t41 -42l-4 -6q-6 4 -26 16t-32.5 20.5t-27.5 21.5t-23 27t-8 28q0 15 9.5 26t25.5 11zM587 510q30 0 30 -54t-74.5 -154.5t-257.5 -313.5q-205 -238 -314 -238q-61 0 -88 25t-27 58q0 21 18 21q17 0 17 -19
q0 -43 17 -60t63 -17q111 0 309 233l31 447q4 50 -28 50q-41 0 -116 -95v11q80 106 154 106q20 0 33.5 -17.5t11.5 -46.5l-29 -387l13 15q239 280 239 331q0 21 -13.5 43.5t-13.5 36.5q0 25 25 25z" />
    <glyph glyph-name="endash" unicode="&#x2013;" horiz-adv-x="490" 
d="M553 243h-390l6 12h390z" />
    <glyph glyph-name="emdash" unicode="&#x2014;" horiz-adv-x="640" 
d="M703 243h-540l6 12h540z" />
    <glyph glyph-name="quoteleft" unicode="&#x2018;" horiz-adv-x="180" 
d="M361 580q-30 0 -30 31q0 36 34 67.5t75 31.5v-8q-27 0 -50.5 -15t-23.5 -30q0 -12 15.5 -24t15.5 -23q0 -14 -10 -22t-26 -8z" />
    <glyph glyph-name="quoteright" unicode="&#x2019;" horiz-adv-x="180" 
d="M410 710q30 0 30 -31q0 -35 -34 -67t-75 -32v8q27 0 51 15.5t24 30.5q0 12 -16 23.5t-16 22.5q0 14 10 22t26 8z" />
    <glyph glyph-name="quotesinglbase" unicode="&#x201a;" horiz-adv-x="180" 
d="M100 50q30 0 30 -31q0 -36 -34 -67.5t-75 -31.5v8q27 0 51 15t24 30q0 12 -16 24t-16 23q0 14 10 22t26 8z" />
    <glyph glyph-name="quotedblleft" unicode="&#x201c;" 
d="M361 580q-30 0 -30 31q0 36 34 67.5t75 31.5v-8q-27 0 -50.5 -15t-23.5 -30q0 -12 15.5 -24t15.5 -23q0 -14 -10 -22t-26 -8zM471 580q-30 0 -30 31q0 36 34 67.5t75 31.5v-8q-27 0 -50.5 -15t-23.5 -30q0 -12 15.5 -24t15.5 -23q0 -14 -10 -22t-26 -8z" />
    <glyph glyph-name="quotedblright" unicode="&#x201d;" 
d="M410 710q30 0 30 -31q0 -35 -34 -67t-75 -32v8q27 0 51 15.5t24 30.5q0 12 -16 23.5t-16 22.5q0 14 10 22t26 8zM520 710q30 0 30 -31q0 -35 -34 -67t-75 -32v8q27 0 51 15.5t24 30.5q0 12 -16 23.5t-16 22.5q0 14 10 22t26 8z" />
    <glyph glyph-name="quotedblbase" unicode="&#x201e;" 
d="M100 50q30 0 30 -31q0 -34 -34.5 -66.5t-74.5 -32.5v4q27 0 52 16t25 31q0 12 -17 25t-17 24q0 14 10 22t26 8zM200 50q30 0 30 -31q0 -34 -34.5 -66.5t-74.5 -32.5v4q27 0 52 16t25 31q0 12 -17 25t-17 24q0 14 10 22t26 8z" />
    <glyph glyph-name="dagger" unicode="&#x2020;" horiz-adv-x="440" 
d="M551 710q19 0 19 -16q0 -14 -14.5 -34.5l-37.5 -50.5t-36 -55q26 1 72.5 13.5t65.5 12.5q20 0 20 -16q0 -15 -15 -29.5t-33 -14.5q-19 0 -54 12.5t-59 13.5q-11 -27 -20 -56q-40 -126 -46 -140q-3 -6 -72.5 -127.5t-116.5 -222.5h-8q47 102 92 226l45 124q9 20 57.5 96
t60.5 100q-25 -1 -72 -13.5t-67 -12.5q-19 0 -19 16t14.5 30t32.5 14q20 0 55 -12.5t59 -13.5q7 14 10 30q3 12 9 45.5t14 50.5q14 30 44 30z" />
    <glyph glyph-name="daggerdbl" unicode="&#x2021;" horiz-adv-x="440" 
d="M551 710q19 0 19 -16q0 -14 -14.5 -34.5l-37.5 -50.5t-36 -55q26 1 72.5 13.5t65.5 12.5q20 0 20 -16q0 -15 -15 -29.5t-33 -14.5q-19 0 -54 12.5t-59 13.5q-1 -2 -14 -36q-7 -21 -17.5 -57t-19 -62.5t-15.5 -40.5q-9 -19 -56 -92.5t-62 -103.5q26 1 73 13.5t66 12.5
t19 -16t-14.5 -30t-32.5 -14q-19 0 -54.5 12.5t-59.5 13.5l-9 -25q-3 -11 -9 -47t-15 -54q-14 -30 -44 -30q-19 0 -19 16q0 14 14.5 35t37.5 50.5t36 54.5q-26 -1 -72.5 -13.5t-65.5 -12.5q-20 0 -20 16q0 15 15 29.5t33 14.5q19 0 54 -12.5t59 -13.5q9 20 14 36
q8 24 26 83.5t26 76.5q9 19 56 92.5t62 103.5q-26 -1 -73 -13.5t-66 -12.5t-19 16t14.5 30t32.5 14q19 0 54.5 -12.5t59.5 -13.5q6 14 9 25q4 14 10 48.5t14 52.5q14 30 44 30z" />
    <glyph glyph-name="bullet" unicode="&#x2022;" horiz-adv-x="220" 
d="M259 319q45 0 45 -38q0 -35 -33 -68.5t-78 -33.5t-45 38q0 35 33 68.5t78 33.5z" />
    <glyph glyph-name="ellipsis" unicode="&#x2026;" horiz-adv-x="500" 
d="M108 60q14 0 21 -7.5t7 -17.5q0 -18 -15 -31.5t-36 -13.5q-27 0 -27 25q0 18 15.5 31.5t34.5 13.5zM268 60q14 0 21 -7.5t7 -17.5q0 -18 -15 -31.5t-36 -13.5q-27 0 -27 25q0 18 15.5 31.5t34.5 13.5zM428 60q14 0 21 -7.5t7 -17.5q0 -18 -15 -31.5t-36 -13.5
q-27 0 -27 25q0 18 15.5 31.5t34.5 13.5z" />
    <glyph glyph-name="perthousand" unicode="&#x2030;" horiz-adv-x="1075" 
d="M211 0h-13l633 700h13zM482 700q48 0 72.5 -23t24.5 -63q0 -54 -34.5 -117t-97.5 -110t-132 -47q-48 0 -73 23t-25 63q0 54 35 117t98 110t132 47zM481 696q-54 0 -108 -55.5t-84.5 -124t-30.5 -115.5q0 -57 58 -57q55 0 109 56.5t84 125t30 113.5q0 57 -58 57zM727 360
q48 0 72 -23t24 -63q0 -55 -34 -118t-97 -109.5t-133 -46.5q-48 0 -72.5 22.5t-24.5 62.5q0 54 35 117.5t98 110.5t132 47zM1087 360q48 0 72 -23t24 -63q0 -55 -34 -118t-97 -109.5t-133 -46.5q-48 0 -72.5 22.5t-24.5 62.5q0 54 35 117.5t98 110.5t132 47zM725 356
q-54 0 -108 -55.5t-84 -124t-30 -115.5q0 -57 58 -57q54 0 108 55.5t84 124t30 115.5q0 57 -58 57zM1085 356q-54 0 -108 -55.5t-84 -124t-30 -115.5q0 -57 58 -57q54 0 108 55.5t84 124t30 115.5q0 57 -58 57z" />
    <glyph glyph-name="guilsinglleft" unicode="&#x2039;" horiz-adv-x="350" 
d="M522 455l-2 -4q-108 -120 -282 -202q97 -81 94 -202l-2 -4q-50 138 -175 203l3 6q183 64 364 203z" />
    <glyph glyph-name="guilsinglright" unicode="&#x203a;" horiz-adv-x="350" 
d="M250 451l2 4q50 -138 176 -203l-3 -6q-184 -64 -365 -203l2 4q108 120 282 202q-97 81 -94 202z" />
    <glyph glyph-name="fraction" unicode="&#x2044;" horiz-adv-x="480" 
d="M96 0h-16l630 700h16z" />
    <glyph glyph-name="euro" unicode="&#x20ac;" horiz-adv-x="790" 
d="M1046 700l-81 -175h-8l2 10q8 28 8 55q0 112 -170 112q-116 0 -227.5 -76t-187.5 -191h161l-6 -12h-163q-49 -77 -69 -148h163l-5 -12h-161q-12 -43 -12 -85q0 -83 47.5 -131.5t131.5 -48.5q207 0 318 167l7 10h8l-82 -175h-8l19 40q3 6 3 9q0 6 -7 6q-6 0 -44.5 -16.5
t-98.5 -32.5t-119 -16q-104 0 -163 54t-59 145q0 37 9 74h-79l5 12h77q19 72 68 148h-76l6 12h78q81 118 208.5 196.5t261.5 78.5q46 0 84.5 -10t58 -22.5l35.5 -22.5t23 -10q11 0 18 15l18 40h8z" />
    <glyph glyph-name="trademark" unicode="&#x2122;" horiz-adv-x="950" 
d="M667 598h-4l7 15q12 27 12 44q0 39 -47 39h-48q-19 0 -27 -18l-175 -376q-4 -8 -4 -12q0 -6 13 -6h21l-1 -4h-127l1 4h20q12 0 17 3.5t10 14.5l175 376q4 8 4 13t-13 5h-49q-38 0 -67 -24t-45 -59l-7 -15h-4l47 102h338zM1225 696h-21q-12 0 -17 -3.5t-10 -14.5
l-175 -376q-4 -8 -4 -13t13 -5h21l-1 -4h-128l1 4h21q12 0 17 3.5t10 14.5l178 381l-347 -403h-4l18 403l-177 -381q-4 -8 -4 -13t12 -5h23l-1 -4h-86l1 4h24q18 0 26 18l176 378q4 10 4 11q0 5 -14 5h-23l1 4h81l-19 -370l318 370h87z" />
    <glyph glyph-name="oneeighth" unicode="&#x215b;" horiz-adv-x="690" 
d="M333 350h-145l2 4h38q10 0 14 2.5t8 12.5l139 297q4 8 2 10.5t-12 1.5q-14 -2 -39 -2l2 4q73 0 101 25h4l-157 -336q-5 -10 -3.5 -12.5t11.5 -2.5h37zM791 700l-630 -700h-16l630 700h16zM711 356q73 0 73 -48q0 -73 -137 -118l26.5 -29.5t17 -26t9.5 -32.5
q0 -45 -43 -75.5t-116 -30.5q-87 0 -87 50q0 40 45 76.5t104 57.5q-37 37 -37 71q0 43 39 74t106 31zM646 192q47 15 77.5 52t30.5 70q0 19 -13 28.5t-32 9.5q-50 0 -78 -23.5t-28 -60.5q0 -31 43 -76zM543 0q55 0 88 26.5t33 64.5q0 8 -3 16.5t-6 14.5t-10.5 15l-11 13
t-14 14l-13.5 13q-54 -24 -88 -60t-34 -76q0 -41 59 -41z" />
    <glyph glyph-name="threeeighths" unicode="&#x215c;" horiz-adv-x="761" 
d="M291 345q-34 0 -54.5 14t-20.5 32q0 11 8 21t21 10t13 -10q0 -3 -5 -15.5t-5 -20.5q0 -27 45 -27q60 0 99 43t39 88q0 48 -75 50q-7 -1 -15.5 -2.5t-12.5 -1.5q-5 0 -5 3q0 8 11 8q3 0 10 -1.5t14 -1.5q62 1 106 40t44 87q0 40 -51 40q-26 0 -44 -11t-23.5 -19.5
t-13.5 -24.5q-7 -18 -27 -18q-12 0 -12 10q0 20 40 43.5t82 23.5q84 0 84 -49q0 -45 -49.5 -80t-114.5 -44q36 -3 63 -18t27 -44q0 -48 -53.5 -86.5t-124.5 -38.5zM862 700l-630 -700h-16l630 700h16zM782 356q73 0 73 -48q0 -73 -137 -118l26.5 -29.5t17 -26t9.5 -32.5
q0 -45 -43 -75.5t-116 -30.5q-87 0 -87 50q0 40 45 76.5t104 57.5q-37 37 -37 71q0 43 39 74t106 31zM717 192q47 15 77.5 52t30.5 70q0 19 -13 28.5t-32 9.5q-50 0 -78 -23.5t-28 -60.5q0 -31 43 -76zM614 0q55 0 88 26.5t33 64.5q0 8 -3 16.5t-6 14.5t-10.5 15l-11 13
t-14 14l-13.5 13q-54 -24 -88 -60t-34 -76q0 -41 59 -41z" />
    <glyph glyph-name="fiveeighths" unicode="&#x215d;" horiz-adv-x="765" 
d="M291 345q-34 0 -54.5 14t-20.5 32q0 11 8 21t21 10t13 -10q0 -4 -5 -17t-5 -19q0 -27 45 -27q61 0 104.5 54.5t43.5 105.5q0 42 -50 42q-46 0 -91 -31h-4l77 143l20 37q25 0 73 -8.5t65 -8.5q29 0 41 26h4q-26 -56 -89 -56q-20 0 -56.5 5t-53.5 5l-72 -135q48 27 90 27
q39 0 61 -14.5t22 -42.5q0 -59 -56.5 -106t-130.5 -47zM866 700l-630 -700h-16l630 700h16zM786 356q73 0 73 -48q0 -73 -137 -118l26.5 -29.5t17 -26t9.5 -32.5q0 -45 -43 -75.5t-116 -30.5q-87 0 -87 50q0 40 45 76.5t104 57.5q-37 37 -37 71q0 43 39 74t106 31zM721 192
q47 15 77.5 52t30.5 70q0 19 -13 28.5t-32 9.5q-50 0 -78 -23.5t-28 -60.5q0 -31 43 -76zM618 0q55 0 88 26.5t33 64.5q0 8 -3 16.5t-6 14.5t-10.5 15l-11 13t-14 14l-13.5 13q-54 -24 -88 -60t-34 -76q0 -41 59 -41z" />
    <glyph glyph-name="seveneighths" unicode="&#x215e;" horiz-adv-x="709" 
d="M277 345q-12 0 -12 11q0 7 4 15q21 45 77 103.5t128 122t89 81.5q-43 -32 -80 -32q-25 0 -60 11t-49 11q-19 0 -33.5 -10.5t-20.5 -23.5l-8 -16h-4l39 82h4l-24 -52q31 57 96 57q25 0 63 -16t55 -16q19 0 48 32h4q-28 -31 -92 -88.5t-110 -112.5t-81 -131
q-13 -28 -33 -28zM810 700l-630 -700h-16l630 700h16zM730 356q73 0 73 -48q0 -73 -137 -118l26.5 -29.5t17 -26t9.5 -32.5q0 -45 -43 -75.5t-116 -30.5q-87 0 -87 50q0 40 45 76.5t104 57.5q-37 37 -37 71q0 43 39 74t106 31zM665 192q47 15 77.5 52t30.5 70q0 19 -13 28.5
t-32 9.5q-50 0 -78 -23.5t-28 -60.5q0 -31 43 -76zM562 0q55 0 88 26.5t33 64.5q0 8 -3 16.5t-6 14.5t-10.5 15l-11 13t-14 14l-13.5 13q-54 -24 -88 -60t-34 -76q0 -41 59 -41z" />
    <glyph glyph-name="partialdiff" unicode="&#x2202;" horiz-adv-x="565" 
d="M640 750q129 0 129 -123q0 -41 -19 -103.5t-52 -133.5t-82.5 -142t-105.5 -128.5t-126 -93.5t-139 -36q-128 0 -128 103q0 49 32.5 118t88 136.5t142.5 115t183 47.5q95 0 122 -41q56 122 56 188q0 48 -27.5 66.5t-78.5 18.5q-110 0 -218 -98v6q109 100 223 100zM558 502
q-67 0 -131 -33.5t-111 -85t-83.5 -109.5t-55 -109.5t-18.5 -84.5q0 -82 90 -82q58 0 114.5 32t99 76.5t87 112.5t71.5 119.5t58 117.5q-24 46 -121 46z" />
    <glyph glyph-name="emptyset" unicode="&#x2205;" horiz-adv-x="820" 
d="M1059 674l-111 -76q22 -41 22 -95q0 -82 -48.5 -173.5t-125.5 -166.5t-182 -124t-209 -49q-142 0 -201 101l-113 -77l-4 12l111 76q-22 41 -22 95q0 82 48.5 173.5t125.5 166.5t182 124t209 49q142 0 201 -101l113 77zM188 197q0 -48 20 -88l724 493q-56 96 -191 96
q-101 0 -204 -48t-178.5 -121.5t-123 -163t-47.5 -168.5zM958 503q0 48 -20 88l-724 -493q56 -96 191 -96q101 0 204 48t178.5 121.5t123 163t47.5 168.5z" />
    <glyph glyph-name="product" unicode="&#x220f;" horiz-adv-x="740" 
d="M1013 692h-40q-20 0 -27.5 -5.5t-16.5 -24.5l-291 -624q-7 -14 -7 -21q0 -9 23 -9h40l-4 -8h-190l4 8h40q20 0 27.5 5.5t16.5 24.5l305 654h-400l-305 -654q-7 -14 -7 -21q0 -9 23 -9h40l-4 -8h-190l4 8h40q20 0 27.5 5.5t16.5 24.5l291 624q7 14 7 21q0 9 -23 9h-40l3 8
h640z" />
    <glyph glyph-name="summation" unicode="&#x2211;" horiz-adv-x="645" 
d="M800 536h-8l14 30q19 41 19 69q0 57 -70 57h-312l60 -346l-379 -338h337q55 0 98.5 34.5t69.5 91.5l14 30h8l-76 -164h-515l4 8l388 350l-59 334l3 8h480z" />
    <glyph glyph-name="minus" unicode="&#x2212;" horiz-adv-x="390" 
d="M453 243h-290l6 12h290z" />
    <glyph glyph-name="radical" unicode="&#x221a;" horiz-adv-x="680" 
d="M372 -5h-12l15 248h-212l6 12h220l-14 -238l565 683h16z" />
    <glyph glyph-name="infinity" unicode="&#x221e;" horiz-adv-x="765" 
d="M764 395q42 0 64 -20t22 -55q0 -70 -67 -142.5t-154 -72.5q-34 0 -57.5 10t-38 32.5t-22 41t-16.5 50.5q-53 -43 -86 -67t-82 -45.5t-93 -21.5q-41 0 -63.5 18.5t-22.5 53.5q0 71 66 144.5t155 73.5q34 0 57.5 -10t38 -32.5t22 -41t16.5 -50.5q53 43 86 67t82 45.5
t93 21.5zM240 117q41 0 89 22.5t77.5 44.5t85.5 68q-9 32 -16 49.5t-21 39.5t-36.5 32t-54.5 10q-80 0 -141.5 -69t-61.5 -131q0 -31 20.5 -48.5t58.5 -17.5zM635 117q81 0 141.5 67.5t60.5 132.5q0 31 -20 48.5t-58 17.5q-41 0 -88.5 -22.5t-78 -45t-85.5 -67.5
q9 -32 16 -49.5t21 -39.5t36.5 -32t54.5 -10z" />
    <glyph glyph-name="integral" unicode="&#x222b;" horiz-adv-x="332" 
d="M606 750q26 0 40 -10.5t14 -25.5t-10.5 -27t-28.5 -12q-17 0 -17 14q0 12 11 23t11 20q0 10 -24 10q-39 0 -65.5 -27.5t-54.5 -88.5l-339 -730q-33 -71 -82 -108.5t-103 -37.5q-26 0 -40 10.5t-14 25.5t10.5 27t28.5 12q17 0 17 -14q0 -13 -11 -24.5t-11 -18.5
q0 -10 24 -10q39 0 65.5 27.5t54.5 88.5l340 730q32 70 81 108t103 38z" />
    <glyph glyph-name="approxequal" unicode="&#x2248;" horiz-adv-x="380" 
d="M500 381h8q-18 -38 -47 -59.5t-59 -21.5q-25 0 -66 23t-64 23q-53 0 -74 -46h-8q18 38 47.5 59.5t62.5 21.5q26 0 63.5 -23t61.5 -23q54 0 75 46zM416 201h8q-18 -38 -47 -59.5t-59 -21.5q-25 0 -66 23t-64 23q-53 0 -74 -46h-8q18 38 47.5 59.5t62.5 21.5q26 0 63.5 -23
t61.5 -23q54 0 75 46z" />
    <glyph glyph-name="notequal" unicode="&#x2260;" horiz-adv-x="390" 
d="M407 335h89l-5 -12h-96l-151 -148h178l-6 -12h-184l-105 -103l-11 6l99 97h-89l6 12h95l151 148h-177l5 12h184l105 103l11 -6z" />
    <glyph glyph-name="lessequal" unicode="&#x2264;" horiz-adv-x="390" 
d="M533 412l-303 -74l234 -74l-6 -11l-253 80l6 12l327 80zM374 73h-290l6 12h290z" />
    <glyph glyph-name="greaterequal" unicode="&#x2265;" horiz-adv-x="390" 
d="M501 345l-6 -12l-327 -80l6 13l302 74l-233 74l5 11zM374 73h-290l6 12h290z" />
    <glyph glyph-name="lozenge" unicode="&#x25ca;" horiz-adv-x="390" 
d="M456 249l-213 -145l-77 145l213 145zM182 245l66 -124l192 132l-66 124z" />
    <glyph glyph-name="idotaccent" 
d="M410 650q14 0 21 -7.5t7 -17.5q0 -18 -15 -31.5t-36 -13.5q-27 0 -27 25q0 18 15.5 31.5t34.5 13.5zM326 510q36 0 36 -35q0 -17 -10 -38l-153 -333q-20 -44 -20 -62q0 -30 30 -30q42 0 116 95v-10q-80 -107 -154 -107q-42 0 -42 44q0 31 19 70l152 329q12 24 12 38
q0 20 -18 20q-29 0 -87 -57v10q69 66 119 66z" />
    <glyph glyph-name="j.alt" horiz-adv-x="265" 
d="M408 650q14 0 21 -7.5t7 -17.5q0 -18 -15 -31.5t-36 -13.5q-27 0 -27 25q0 18 15.5 31.5t34.5 13.5zM326 510q36 0 36 -35q0 -17 -10 -38l-227 -487q-47 -101 -88.5 -150.5t-101.5 -49.5v8q32 0 58 36t82 156l225 483q12 24 12 38q0 20 -18 20q-29 0 -87 -57v10
q69 66 119 66z" />
    <glyph glyph-name="j.alt.ss01" horiz-adv-x="265" 
d="M408 650q14 0 21 -7.5t7 -17.5q0 -18 -15 -31.5t-36 -13.5q-27 0 -27 25q0 18 15.5 31.5t34.5 13.5zM380 500l-255 -550q-45 -99 -87.5 -149.5t-102.5 -50.5v8q32 0 58.5 36.5t81.5 155.5l255 550h50z" />
    <glyph glyph-name="i.ss01" 
d="M419 650q14 0 21 -7.5t7 -17.5q0 -18 -15 -31.5t-36 -13.5q-27 0 -27 25q0 18 15.5 31.5t34.5 13.5zM380 500l-181 -396q-20 -44 -20 -62q0 -30 30 -30q42 0 116 95v-10q-80 -107 -154 -107q-42 0 -42 44q0 28 19 70l182 396h50z" />
    <glyph glyph-name="dotlessi.ss01" 
d="M380 500l-181 -396q-20 -44 -20 -62q0 -30 30 -30q42 0 116 95v-10q-80 -107 -154 -107q-42 0 -42 44q0 28 19 70l182 396h50z" />
    <glyph glyph-name="iacute.ss01" 
d="M554 700q20 0 20 -21q0 -14 -13.5 -28t-43 -28.5l-51.5 -24.5t-64.5 -26l-57.5 -22v6q51 22 82 43t62 55q42 46 66 46zM380 500l-181 -396q-20 -44 -20 -62q0 -30 30 -30q42 0 116 95v-10q-80 -107 -154 -107q-42 0 -42 44q0 28 19 70l182 396h50z" />
    <glyph glyph-name="icircumflex.ss01" 
d="M442 700h9q6 -34 29.5 -80.5t50.5 -66.5l-5 -5q-67 36 -100 87q-54 -34 -198 -87l-1 8q47 20 113 65.5t102 78.5zM380 500l-181 -396q-20 -44 -20 -62q0 -30 30 -30q42 0 116 95v-10q-80 -107 -154 -107q-42 0 -42 44q0 28 19 70l182 396h50z" />
    <glyph glyph-name="idieresis.ss01" 
d="M338 650q14 0 21 -7.5t7 -17.5q0 -18 -15 -31.5t-36 -13.5q-27 0 -27 25q0 18 15.5 31.5t34.5 13.5zM498 650q14 0 21 -7.5t7 -17.5q0 -18 -15 -31.5t-36 -13.5q-27 0 -27 25q0 18 15.5 31.5t34.5 13.5zM380 500l-181 -396q-20 -44 -20 -62q0 -30 30 -30q42 0 116 95v-10
q-80 -107 -154 -107q-42 0 -42 44q0 28 19 70l182 396h50z" />
    <glyph glyph-name="idotaccent.ss01" 
d="M419 650q14 0 21 -7.5t7 -17.5q0 -18 -15 -31.5t-36 -13.5q-27 0 -27 25q0 18 15.5 31.5t34.5 13.5zM380 500l-181 -396q-20 -44 -20 -62q0 -30 30 -30q42 0 116 95v-10q-80 -107 -154 -107q-42 0 -42 44q0 28 19 70l182 396h50z" />
    <glyph glyph-name="igrave.ss01" 
d="M349 700q13 0 23.5 -10.5t10.5 -35.5q0 -35 11 -56t41 -42l-4 -6q-6 4 -26 16t-32.5 20.5t-27.5 21.5t-23 27t-8 28q0 15 9.5 26t25.5 11zM380 500l-181 -396q-20 -44 -20 -62q0 -30 30 -30q42 0 116 95v-10q-80 -107 -154 -107q-42 0 -42 44q0 28 19 70l182 396h50z" />
    <glyph glyph-name="ij.ss01" horiz-adv-x="549" 
d="M419 650q14 0 21 -7.5t7 -17.5q0 -18 -15 -31.5t-36 -13.5q-27 0 -27 25q0 18 15.5 31.5t34.5 13.5zM692 650q14 0 21 -7.5t7 -17.5q0 -18 -15 -31.5t-36 -13.5q-27 0 -27 25q0 18 15.5 31.5t34.5 13.5zM610 510q36 0 36 -35q0 -17 -10 -38l-227 -487
q-47 -101 -88.5 -150.5t-101.5 -49.5q-36 0 -55.5 17.5t-19.5 45.5q0 21 18 21q17 0 17 -19q0 -57 40 -57q32 0 58 36t82 156l225 483q12 24 12 38q0 20 -18 20q-29 0 -87 -57v10q69 66 119 66zM380 500l-181 -396q-20 -44 -20 -62q0 -30 30 -30q42 0 116 95v-10
q-80 -107 -154 -107q-42 0 -42 44q0 28 19 70l182 396h50z" />
    <glyph glyph-name="imacron.ss01" 
d="M525 600h-250l5 12h250zM380 500l-181 -396q-20 -44 -20 -62q0 -30 30 -30q42 0 116 95v-10q-80 -107 -154 -107q-42 0 -42 44q0 28 19 70l182 396h50z" />
    <glyph glyph-name="iogonek.ss01" 
d="M410 650q14 0 21 -7.5t7 -17.5q0 -18 -15 -31.5t-36 -13.5q-27 0 -27 25q0 18 15.5 31.5t34.5 13.5zM380 500l-181 -396q-20 -44 -20 -62q0 -30 30 -30q42 0 116 95v-10q-26 -38 -72 -75t-82.5 -60t-64.5 -53t-28 -61q0 -29 34 -29t71 21l-2 -6q-40 -29 -86 -29
q-50 0 -50 36q0 35 42 71.5t123 85.5q-20 -8 -39 -8q-42 0 -42 44q0 28 19 70l182 396h50z" />
    <glyph glyph-name="j.ss01" horiz-adv-x="265" 
d="M418 650q14 0 21 -7.5t7 -17.5q0 -18 -15 -31.5t-36 -13.5q-27 0 -27 25q0 18 15.5 31.5t34.5 13.5zM380 500l-255 -550q-45 -99 -87.5 -149.5t-102.5 -50.5q-36 0 -55.5 17.5t-19.5 45.5q0 21 18 21q17 0 17 -19q0 -57 40 -57q32 0 58.5 36.5t81.5 155.5l255 550h50z
" />
    <glyph glyph-name="dotlessj.ss01" horiz-adv-x="265" 
d="M380 500l-255 -550q-45 -99 -87.5 -149.5t-102.5 -50.5q-36 0 -55.5 17.5t-19.5 45.5q0 21 18 21q17 0 17 -19q0 -57 40 -57q32 0 58.5 36.5t81.5 155.5l255 550h50z" />
    <glyph glyph-name="m.ss01" horiz-adv-x="891" 
d="M860 510q44 0 65 -19t21 -47t-17 -64l-129 -276q-20 -44 -20 -62q0 -30 30 -30q42 0 116 95v-10q-80 -107 -154 -107q-42 0 -42 44q0 31 19 70l130 276q22 46 22 82q0 40 -43 40q-72 0 -166 -92.5t-140 -191.5l-100 -214l-50 -4v4l176 376q22 46 22 82q0 40 -43 40
q-72 0 -166 -92.5t-140 -191.5l-101 -214l-50 -4v4l230 496h50l-93 -205q60 89 135 152t137 63q44 0 65 -19t21 -47q0 -22 -8 -42.5t-49 -106.5q60 89 135 152t137 63z" />
    <glyph glyph-name="n.ss01" horiz-adv-x="590" 
d="M559 510q44 0 65 -19t21 -47t-17 -64l-129 -276q-20 -44 -20 -62q0 -30 30 -30q42 0 116 95v-10q-80 -107 -154 -107q-42 0 -42 44q0 31 19 70l130 276q22 46 22 82q0 40 -43 40q-72 0 -166 -92.5t-140 -191.5l-101 -214l-50 -4v4l230 496h50l-93 -205q60 89 135 152
t137 63z" />
    <glyph glyph-name="nacute.ss01" horiz-adv-x="590" 
d="M680 700q20 0 20 -21q0 -14 -13.5 -28t-43 -28.5l-51.5 -24.5t-64.5 -26l-57.5 -22v6q51 22 82 43t62 55q42 46 66 46zM559 510q44 0 65 -19t21 -47t-17 -64l-129 -276q-20 -44 -20 -62q0 -30 30 -30q42 0 116 95v-10q-80 -107 -154 -107q-42 0 -42 44q0 31 19 70
l130 276q22 46 22 82q0 40 -43 40q-72 0 -166 -92.5t-140 -191.5l-101 -214l-50 -4v4l230 496h50l-93 -205q60 89 135 152t137 63z" />
    <glyph glyph-name="ncaron.ss01" horiz-adv-x="590" 
d="M721 700l1 -8q-46 -20 -111.5 -65.5t-102.5 -78.5h-9q-7 34 -29 80t-50 66l5 6q66 -36 98 -87q56 35 198 87zM559 510q44 0 65 -19t21 -47t-17 -64l-129 -276q-20 -44 -20 -62q0 -30 30 -30q42 0 116 95v-10q-80 -107 -154 -107q-42 0 -42 44q0 31 19 70l130 276
q22 46 22 82q0 40 -43 40q-72 0 -166 -92.5t-140 -191.5l-101 -214l-50 -4v4l230 496h50l-93 -205q60 89 135 152t137 63z" />
    <glyph glyph-name="ncommaaccent.ss01" horiz-adv-x="590" 
d="M559 510q44 0 65 -19t21 -47t-17 -64l-129 -276q-20 -44 -20 -62q0 -30 30 -30q42 0 116 95v-10q-80 -107 -154 -107q-42 0 -42 44q0 31 19 70l130 276q22 46 22 82q0 40 -43 40q-72 0 -166 -92.5t-140 -191.5l-101 -214l-50 -4v4l230 496h50l-93 -205q60 89 135 152
t137 63zM265 -60q30 0 30 -31q0 -36 -34 -67.5t-75 -31.5v8q27 0 51 15t24 30q0 12 -16 24t-16 23q0 14 10 22t26 8z" />
    <glyph glyph-name="eng.ss01" horiz-adv-x="555" 
d="M559 510q44 0 65 -19t21 -47t-17 -64l-203 -430q-48 -101 -89 -150.5t-101 -49.5q-36 0 -55.5 17.5t-19.5 45.5q0 21 18 21q17 0 17 -19q0 -57 40 -57q32 0 57.5 36t82.5 156l203 430q22 46 22 82q0 40 -43 40q-72 0 -166 -92.5t-140 -191.5l-101 -214l-50 -4v4l230 496
h50l-93 -205q60 89 135 152t137 63z" />
    <glyph glyph-name="ntilde.ss01" horiz-adv-x="590" 
d="M687 661h8q-18 -38 -46.5 -59.5t-59.5 -21.5q-25 0 -65.5 23t-63.5 23q-52 0 -75 -46h-8q18 38 47.5 59.5t62.5 21.5q26 0 64 -23t62 -23q53 0 74 46zM559 510q44 0 65 -19t21 -47t-17 -64l-129 -276q-20 -44 -20 -62q0 -30 30 -30q42 0 116 95v-10q-80 -107 -154 -107
q-42 0 -42 44q0 31 19 70l130 276q22 46 22 82q0 40 -43 40q-72 0 -166 -92.5t-140 -191.5l-101 -214l-50 -4v4l230 496h50l-93 -205q60 89 135 152t137 63z" />
    <glyph glyph-name="r.ss01" horiz-adv-x="370" 
d="M520 510q30 0 30 -26q0 -13 -9.5 -20t-20.5 -7q-8 0 -26 5t-30 5q-45 0 -106.5 -77t-106.5 -172l-101 -214l-50 -4v4l230 496h50l-84 -186q52 85 112 140.5t112 55.5z" />
    <glyph glyph-name="racute.ss01" horiz-adv-x="370" 
d="M608 700q20 0 20 -21q0 -14 -13.5 -28t-43 -28.5l-51.5 -24.5t-64.5 -26l-57.5 -22v6q51 22 82 43t62 55q42 46 66 46zM520 510q30 0 30 -26q0 -13 -9.5 -20t-20.5 -7q-8 0 -26 5t-30 5q-45 0 -106.5 -77t-106.5 -172l-101 -214l-50 -4v4l230 496h50l-84 -186
q52 85 112 140.5t112 55.5z" />
    <glyph glyph-name="rcaron.ss01" horiz-adv-x="370" 
d="M649 700l1 -8q-46 -20 -111.5 -65.5t-102.5 -78.5h-9q-7 34 -29 80t-50 66l5 6q66 -36 98 -87q56 35 198 87zM520 510q30 0 30 -26q0 -13 -9.5 -20t-20.5 -7q-8 0 -26 5t-30 5q-45 0 -106.5 -77t-106.5 -172l-101 -214l-50 -4v4l230 496h50l-84 -186q52 85 112 140.5
t112 55.5z" />
    <glyph glyph-name="rcommaaccent.ss01" horiz-adv-x="370" 
d="M520 510q30 0 30 -26q0 -13 -9.5 -20t-20.5 -7q-8 0 -26 5t-30 5q-45 0 -106.5 -77t-106.5 -172l-101 -214l-50 -4v4l230 496h50l-84 -186q52 85 112 140.5t112 55.5zM85 -60q30 0 30 -31q0 -36 -34 -67.5t-75 -31.5v8q27 0 51 15t24 30q0 12 -16 24t-16 23q0 14 10 22
t26 8z" />
    <glyph glyph-name="u.ss01" horiz-adv-x="590" 
d="M380 500l-178 -380q-22 -47 -22 -82q0 -40 43 -40q72 0 166 92.5t140 191.5l101 214l50 4v-4l-182 -392q-20 -44 -20 -62q0 -30 30 -30q42 0 116 95v-10q-80 -107 -154 -107q-42 0 -42 44q0 31 19 70l47 102q-60 -90 -135.5 -153t-137.5 -63q-44 0 -65 19t-21 47
q0 27 17 64l178 380h50z" />
    <glyph glyph-name="uacute.ss01" horiz-adv-x="590" 
d="M703 700q20 0 20 -21q0 -14 -13.5 -28t-43 -28.5l-51.5 -24.5t-64.5 -26l-57.5 -22v6q51 22 82 43t62 55q42 46 66 46zM380 500l-178 -380q-22 -47 -22 -82q0 -40 43 -40q72 0 166 92.5t140 191.5l101 214l50 4v-4l-182 -392q-20 -44 -20 -62q0 -30 30 -30q42 0 116 95
v-10q-80 -107 -154 -107q-42 0 -42 44q0 31 19 70l47 102q-60 -90 -135.5 -153t-137.5 -63q-44 0 -65 19t-21 47q0 27 17 64l178 380h50z" />
    <glyph glyph-name="ucircumflex.ss01" horiz-adv-x="590" 
d="M592 700h9q6 -34 29.5 -80.5t50.5 -66.5l-5 -5q-67 36 -100 87q-54 -34 -198 -87l-1 8q47 20 113 65.5t102 78.5zM380 500l-178 -380q-22 -47 -22 -82q0 -40 43 -40q72 0 166 92.5t140 191.5l101 214l50 4v-4l-182 -392q-20 -44 -20 -62q0 -30 30 -30q42 0 116 95v-10
q-80 -107 -154 -107q-42 0 -42 44q0 31 19 70l47 102q-60 -90 -135.5 -153t-137.5 -63q-44 0 -65 19t-21 47q0 27 17 64l178 380h50z" />
    <glyph glyph-name="udieresis.ss01" horiz-adv-x="590" 
d="M488 650q14 0 21 -7.5t7 -17.5q0 -18 -15 -31.5t-36 -13.5q-27 0 -27 25q0 18 15.5 31.5t34.5 13.5zM648 650q14 0 21 -7.5t7 -17.5q0 -18 -15 -31.5t-36 -13.5q-27 0 -27 25q0 18 15.5 31.5t34.5 13.5zM380 500l-178 -380q-22 -47 -22 -82q0 -40 43 -40q72 0 166 92.5
t140 191.5l101 214l50 4v-4l-182 -392q-20 -44 -20 -62q0 -30 30 -30q42 0 116 95v-10q-80 -107 -154 -107q-42 0 -42 44q0 31 19 70l47 102q-60 -90 -135.5 -153t-137.5 -63q-44 0 -65 19t-21 47q0 27 17 64l178 380h50z" />
    <glyph glyph-name="ugrave.ss01" horiz-adv-x="590" 
d="M499 700q13 0 23.5 -10.5t10.5 -35.5q0 -35 11 -56t41 -42l-4 -6q-6 4 -26 16t-32.5 20.5t-27.5 21.5t-23 27t-8 28q0 15 9.5 26t25.5 11zM380 500l-178 -380q-22 -47 -22 -82q0 -40 43 -40q72 0 166 92.5t140 191.5l101 214l50 4v-4l-182 -392q-20 -44 -20 -62
q0 -30 30 -30q42 0 116 95v-10q-80 -107 -154 -107q-42 0 -42 44q0 31 19 70l47 102q-60 -90 -135.5 -153t-137.5 -63q-44 0 -65 19t-21 47q0 27 17 64l178 380h50z" />
    <glyph glyph-name="uhungarumlaut.ss01" horiz-adv-x="590" 
d="M644 700q19 0 19 -20q0 -14 -13 -27.5t-43.5 -29t-51 -24.5t-65.5 -26.5t-57 -22.5v6q51 22 82 43t62 55q42 46 67 46zM794 700q19 0 19 -20q0 -14 -13 -27.5t-43.5 -29t-51 -24.5t-65.5 -26.5t-57 -22.5v6q51 22 82 43t62 55q42 46 67 46zM380 500l-178 -380
q-22 -47 -22 -82q0 -40 43 -40q72 0 166 92.5t140 191.5l101 214l50 4v-4l-182 -392q-20 -44 -20 -62q0 -30 30 -30q42 0 116 95v-10q-80 -107 -154 -107q-42 0 -42 44q0 31 19 70l47 102q-60 -90 -135.5 -153t-137.5 -63q-44 0 -65 19t-21 47q0 27 17 64l178 380h50z" />
    <glyph glyph-name="umacron.ss01" horiz-adv-x="590" 
d="M675 600h-250l5 12h250zM380 500l-178 -380q-22 -47 -22 -82q0 -40 43 -40q72 0 166 92.5t140 191.5l101 214l50 4v-4l-182 -392q-20 -44 -20 -62q0 -30 30 -30q42 0 116 95v-10q-80 -107 -154 -107q-42 0 -42 44q0 31 19 70l47 102q-60 -90 -135.5 -153t-137.5 -63
q-44 0 -65 19t-21 47q0 27 17 64l178 380h50z" />
    <glyph glyph-name="uogonek.ss01" horiz-adv-x="590" 
d="M680 496l-182 -392q-20 -44 -20 -62q0 -30 30 -30q42 0 116 95v-10q-26 -38 -72 -75t-82.5 -60t-64.5 -53t-28 -61q0 -29 34 -29t71 21l-2 -6q-40 -29 -86 -29q-50 0 -50 36q0 35 42 71.5t123 85.5q-20 -8 -39 -8q-42 0 -42 44q0 31 19 70l47 102q-60 -90 -135.5 -153
t-137.5 -63q-44 0 -65 19t-21 47q0 27 17 64l178 380h50l-178 -380q-22 -47 -22 -82q0 -40 43 -40q72 0 166 92.5t140 191.5l101 214l50 4v-4z" />
    <glyph glyph-name="uring.ss01" horiz-adv-x="590" 
d="M619 780q-65 0 -110.5 -38t-45.5 -93q0 -35 22 -57t61 -22q65 0 110.5 38t45.5 93q0 35 -22 57t-61 22zM552 582q-76 0 -76 70q0 46 40.5 81t96.5 35q76 0 76 -70q0 -46 -40.5 -81t-96.5 -35zM380 500l-178 -380q-22 -47 -22 -82q0 -40 43 -40q72 0 166 92.5t140 191.5
l101 214l50 4v-4l-182 -392q-20 -44 -20 -62q0 -30 30 -30q42 0 116 95v-10q-80 -107 -154 -107q-42 0 -42 44q0 31 19 70l47 102q-60 -90 -135.5 -153t-137.5 -63q-44 0 -65 19t-21 47q0 27 17 64l178 380h50z" />
    <glyph glyph-name="v.ss01" horiz-adv-x="515" 
d="M615 456q0 -67 -67.5 -179t-162.5 -199.5t-164 -87.5q-44 0 -65 19t-21 47q0 27 17 64l178 380h50l-178 -380q-22 -47 -22 -82q0 -40 43 -40q60 0 148.5 79t151 175t62.5 146q0 21 -12.5 47t-12.5 40q0 25 25 25q30 0 30 -54z" />
    <glyph glyph-name="w.ss01" horiz-adv-x="817" 
d="M380 500l-178 -380q-22 -47 -22 -82q0 -40 43 -40q72 0 166 92.5t140 191.5l101 214l50 4v-4l-176 -376q-22 -46 -22 -82q0 -40 43 -40q60 0 148.5 79t151 175t62.5 146q0 21 -12.5 47t-12.5 40q0 25 25 25q30 0 30 -54q0 -67 -67.5 -179t-162.5 -199.5t-164 -87.5
q-44 0 -65 19t-21 47t17 64l40 86q-60 -90 -135.5 -153t-137.5 -63q-44 0 -65 19t-21 47q0 27 17 64l178 380h50z" />
    <glyph glyph-name="wacute.ss01" horiz-adv-x="817" 
d="M858 700q20 0 20 -21q0 -14 -13.5 -28t-43 -28.5l-51.5 -24.5t-64.5 -26l-57.5 -22v6q51 22 82 43t62 55q42 46 66 46zM380 500l-178 -380q-22 -47 -22 -82q0 -40 43 -40q72 0 166 92.5t140 191.5l101 214l50 4v-4l-176 -376q-22 -46 -22 -82q0 -40 43 -40q60 0 148.5 79
t151 175t62.5 146q0 21 -12.5 47t-12.5 40q0 25 25 25q30 0 30 -54q0 -67 -67.5 -179t-162.5 -199.5t-164 -87.5q-44 0 -65 19t-21 47t17 64l40 86q-60 -90 -135.5 -153t-137.5 -63q-44 0 -65 19t-21 47q0 27 17 64l178 380h50z" />
    <glyph glyph-name="wcircumflex.ss01" horiz-adv-x="817" 
d="M747 700h9q6 -34 29.5 -80.5t50.5 -66.5l-5 -5q-67 36 -100 87q-54 -34 -198 -87l-1 8q47 20 113 65.5t102 78.5zM380 500l-178 -380q-22 -47 -22 -82q0 -40 43 -40q72 0 166 92.5t140 191.5l101 214l50 4v-4l-176 -376q-22 -46 -22 -82q0 -40 43 -40q60 0 148.5 79
t151 175t62.5 146q0 21 -12.5 47t-12.5 40q0 25 25 25q30 0 30 -54q0 -67 -67.5 -179t-162.5 -199.5t-164 -87.5q-44 0 -65 19t-21 47t17 64l40 86q-60 -90 -135.5 -153t-137.5 -63q-44 0 -65 19t-21 47q0 27 17 64l178 380h50z" />
    <glyph glyph-name="wdieresis.ss01" horiz-adv-x="817" 
d="M643 650q14 0 21 -7.5t7 -17.5q0 -18 -15 -31.5t-36 -13.5q-27 0 -27 25q0 18 15.5 31.5t34.5 13.5zM803 650q14 0 21 -7.5t7 -17.5q0 -18 -15 -31.5t-36 -13.5q-27 0 -27 25q0 18 15.5 31.5t34.5 13.5zM380 500l-178 -380q-22 -47 -22 -82q0 -40 43 -40q72 0 166 92.5
t140 191.5l101 214l50 4v-4l-176 -376q-22 -46 -22 -82q0 -40 43 -40q60 0 148.5 79t151 175t62.5 146q0 21 -12.5 47t-12.5 40q0 25 25 25q30 0 30 -54q0 -67 -67.5 -179t-162.5 -199.5t-164 -87.5q-44 0 -65 19t-21 47t17 64l40 86q-60 -90 -135.5 -153t-137.5 -63
q-44 0 -65 19t-21 47q0 27 17 64l178 380h50z" />
    <glyph glyph-name="wgrave.ss01" horiz-adv-x="817" 
d="M654 700q13 0 23.5 -10.5t10.5 -35.5q0 -35 11 -56t41 -42l-4 -6q-6 4 -26 16t-32.5 20.5t-27.5 21.5t-23 27t-8 28q0 15 9.5 26t25.5 11zM380 500l-178 -380q-22 -47 -22 -82q0 -40 43 -40q72 0 166 92.5t140 191.5l101 214l50 4v-4l-176 -376q-22 -46 -22 -82
q0 -40 43 -40q60 0 148.5 79t151 175t62.5 146q0 21 -12.5 47t-12.5 40q0 25 25 25q30 0 30 -54q0 -67 -67.5 -179t-162.5 -199.5t-164 -87.5q-44 0 -65 19t-21 47t17 64l40 86q-60 -90 -135.5 -153t-137.5 -63q-44 0 -65 19t-21 47q0 27 17 64l178 380h50z" />
    <glyph glyph-name="zero.lf" horiz-adv-x="650" 
d="M656 710q147 0 147 -141q0 -59 -24 -135t-70 -153.5t-104 -143t-133.5 -106.5t-151.5 -41q-148 0 -148 140q0 74 39 172.5t102 189.5t155.5 154.5t187.5 63.5zM652 702q-67 0 -135.5 -46t-121.5 -116.5t-95.5 -151.5t-65 -156t-22.5 -124q0 -110 112 -110q68 0 137 46
t122 116.5t95 152t64.5 156t22.5 123.5q0 110 -113 110z" />
    <glyph glyph-name="one.lf" horiz-adv-x="370" 
d="M541 710l-313 -672q-7 -14 -7 -21q0 -9 23 -9h80l-4 -8h-270l4 8h80q20 0 27.5 5.5t16.5 24.5l283 607q4 8 4 15q0 11 -23 7q-35 -5 -83 -5l3 8q126 0 171 40h8z" />
    <glyph glyph-name="two.lf" horiz-adv-x="550" 
d="M586 710q69 0 107.5 -26.5t38.5 -78.5q0 -110 -126.5 -231.5t-402.5 -285.5l-64 -38h246q62 0 93 15t56 69l14 30h8l-76 -164h-430l4 8l148 87q171 101 282.5 199.5t157 176t45.5 145.5q0 86 -105 86q-40 0 -73 -10.5t-53 -28t-31.5 -32t-19.5 -30.5q-15 -31 -39 -31
q-17 0 -17 14q0 34 77.5 80t159.5 46z" />
    <glyph glyph-name="three.lf" horiz-adv-x="565" 
d="M586 710q73 0 114.5 -25t41.5 -72q0 -87 -97 -161.5t-223 -89.5q70 -5 120.5 -36t50.5 -86q0 -95 -103 -172.5t-240 -77.5q-67 0 -106.5 27.5t-39.5 63.5q0 20 11 34.5t31 14.5q16 0 16 -13q0 -3 -7.5 -23t-7.5 -32q0 -64 107 -64q65 0 122 25t93 63.5t56.5 82t20.5 83.5
q0 30 -15.5 52t-42.5 33t-54.5 16t-60.5 5q-13 -1 -28 -3.5t-21 -2.5q-9 0 -9 6q0 14 18 14q6 0 18.5 -2.5t25.5 -3.5q129 2 222.5 79t93.5 172q0 39 -27.5 62t-83.5 23q-75 0 -117.5 -32.5t-59.5 -69.5l-3 -5q-12 -25 -36 -25q-17 0 -17 14q0 34 77.5 80t159.5 46z" />
    <glyph glyph-name="four.lf" horiz-adv-x="570" 
d="M502 196h109l-3 -8h-110l-70 -150q-7 -14 -7 -21q0 -9 23 -9h80l-4 -8h-270l4 8h80q20 0 27.5 5.5t16.5 24.5l70 150h-330l3 8l612 514h8zM452 196l204 440l-523 -440h319z" />
    <glyph glyph-name="five.lf" horiz-adv-x="560" 
d="M798 720h8q-43 -90 -160 -90q-36 0 -107 10t-101 10l-158 -292q100 52 177 52q73 0 113 -28t40 -82q0 -117 -109.5 -213.5t-250.5 -96.5q-67 0 -106.5 27.5t-39.5 63.5q0 20 11 34.5t31 14.5q16 0 16 -13q0 -4 -7.5 -22.5t-7.5 -32.5q0 -64 107 -64q68 0 128.5 33.5
t99 83t61 103t22.5 96.5q0 88 -111 88q-83 0 -181 -57h-8l191 355q40 0 135 -17.5t132 -17.5q50 0 75 55z" />
    <glyph glyph-name="six.lf" horiz-adv-x="590" 
d="M657 710q60 0 96 -27t36 -62q0 -20 -11 -35.5t-31 -15.5q-17 0 -17 14q0 5 9 24t9 35q0 59 -95 59q-55 0 -110 -30t-102 -81t-85.5 -110t-70.5 -126q34 20 57 32t66.5 25t86.5 13q72 0 111.5 -27t39.5 -81q0 -53 -29.5 -111.5t-77 -106t-113 -78.5t-131.5 -31
q-135 0 -135 126q0 64 41.5 163.5t107.5 195.5t160.5 165.5t187.5 69.5zM492 417q-41 0 -86 -14t-67.5 -25.5t-58.5 -33.5q-75 -158 -75 -248q0 -98 94 -98q56 0 113 34.5t98 85t67 109t26 105.5q0 85 -111 85z" />
    <glyph glyph-name="seven.lf" horiz-adv-x="550" 
d="M832 710h9q-55 -61 -147 -146.5l-156.5 -147t-141.5 -164t-132 -220.5q-20 -42 -45 -42q-14 0 -14 13q0 10 8 26q38 81 124 184.5t167 180.5l171 160.5t116 111.5q-66 -46 -134 -46q-49 0 -118.5 20t-98.5 20q-43 0 -74 -23t-45 -51l-15 -33h-8l68 147h8l-39 -85
q27 46 76.5 70.5t104.5 24.5q40 0 115 -27.5t112 -27.5q41 0 89 55z" />
    <glyph glyph-name="eight.lf" horiz-adv-x="590" 
d="M758 605q0 -75 -65.5 -130t-199.5 -99q4 -4 11 -12q34 -37 50.5 -57t33.5 -53t17 -62q0 -81 -82 -141.5t-213 -60.5q-86 0 -129.5 35t-43.5 85q0 140 307 257q-81 90 -81 153q0 82 64.5 136t188.5 54q69 0 105.5 -30t36.5 -75zM489 382q113 36 172.5 99t59.5 129
q0 47 -32.5 69.5t-74.5 22.5q-99 0 -155 -45.5t-56 -113.5q0 -41 22 -78t64 -83zM312 -2q65 0 116.5 17.5t80 44.5t43 55t14.5 55q0 15 -3 29t-11.5 30l-14 26t-20 28l-20.5 25t-25 27.5t-23 25.5q-57 -24 -102 -49t-87 -57.5t-65 -73t-23 -85.5q0 -41 35.5 -69.5
t104.5 -28.5z" />
    <glyph glyph-name="nine.lf" horiz-adv-x="590" 
d="M621 710q136 0 136 -126q0 -51 -25.5 -126t-73.5 -156t-108 -151t-137.5 -115.5t-153.5 -45.5q-60 0 -96 27t-36 62q0 20 11.5 35.5t31.5 15.5q16 0 16 -13q0 -4 -8 -24t-8 -37q0 -58 93 -58q106 0 203 101.5t167 247.5q-37 -22 -58.5 -33t-66 -25t-87.5 -14
q-72 0 -111.5 27t-39.5 81q0 53 29.5 111.5t77 106t113 78.5t131.5 31zM637 356q75 158 75 249q0 97 -95 97q-73 0 -145.5 -57t-115 -134.5t-42.5 -142.5q0 -85 111 -85q91 0 212 73z" />
    <glyph glyph-name="zero.osf" horiz-adv-x="650" 
d="M563 510q85 0 125 -37t40 -100q0 -55 -31 -121t-83 -124.5t-130.5 -98t-163.5 -39.5q-84 0 -124.5 36.5t-40.5 98.5q0 44 19 95.5t56 102.5t85.5 93t113.5 68t134 26zM559 502q-62 0 -120.5 -29t-100.5 -74t-74.5 -98.5t-48.5 -104t-16 -88.5q0 -110 125 -110
q77 0 147.5 43.5t115.5 106.5t71.5 129t26.5 115q0 110 -126 110z" />
    <glyph glyph-name="one.osf" horiz-adv-x="370" 
d="M448 510l-220 -472q-7 -14 -7 -21q0 -9 23 -9h80l-4 -8h-270l4 8h80q20 0 27.5 5.5t16.5 24.5l190 407q4 8 4 15q0 11 -23 7q-35 -5 -83 -5l3 8q126 0 171 40h8z" />
    <glyph glyph-name="two.osf" horiz-adv-x="550" 
d="M493 510q161 0 161 -88q0 -87 -111 -166q-67 -47 -273 -148l-81 -40l-37 -18h233q62 0 93 15t56 69l14 30h8l-76 -164h-430l4 8l134 67l148.5 76.5t114.5 67t87.5 67.5t49 66.5t18.5 74.5q0 75 -117 75q-76 0 -119 -32.5t-59 -70.5q-3 -9 -13.5 -19t-24.5 -10
q-17 0 -17 14q0 34 77.5 80t159.5 46z" />
    <glyph glyph-name="three.osf" horiz-adv-x="565" 
d="M493 510q73 0 114.5 -25t41.5 -72q0 -87 -97 -161.5t-223 -89.5q70 -5 120.5 -36t50.5 -86q0 -95 -103 -172.5t-240 -77.5q-67 0 -106.5 27.5t-39.5 63.5q0 20 11 34.5t31 14.5q16 0 16 -13q0 -3 -7.5 -23t-7.5 -33q0 -63 107 -63q65 0 122 25t93 63t56.5 82t20.5 84
q0 30 -15.5 52t-42.5 33t-54.5 16t-60.5 5q-13 -1 -28 -3.5t-21 -2.5q-9 0 -9 6q0 14 18 14q6 0 18.5 -2.5t25.5 -3.5q129 2 222.5 79t93.5 172q0 39 -27.5 62t-83.5 23q-75 0 -117.5 -32.5t-59.5 -69.5l-3 -5q-12 -25 -36 -25q-17 0 -17 14q0 34 77.5 80t159.5 46z" />
    <glyph glyph-name="four.osf" horiz-adv-x="570" 
d="M414 7h109l-3 -8h-110l-75 -161q-7 -14 -7 -21q0 -9 23 -9h80l-4 -8h-270l4 8h80q20 0 27.5 5.5t16.5 24.5l75 161h-330l3 8l607 503h8zM364 7l200 430l-519 -430h319z" />
    <glyph glyph-name="five.osf" horiz-adv-x="560" 
d="M705 520h8q-43 -90 -160 -90q-36 0 -107 10t-101 10l-158 -292q100 52 177 52q73 0 113 -28t40 -82q0 -117 -109.5 -213.5t-250.5 -96.5q-67 0 -106.5 27.5t-39.5 63.5q0 20 11 34.5t31 14.5q16 0 16 -13q0 -4 -7.5 -22.5t-7.5 -33.5q0 -63 107 -63q68 0 128.5 33.5
t99 83t61 103t22.5 96.5q0 88 -111 88q-83 0 -181 -57h-8l191 355q41 0 135 -17.5t132 -17.5q50 0 75 55z" />
    <glyph glyph-name="six.osf" horiz-adv-x="590" 
d="M657 710q60 0 96 -27t36 -62q0 -20 -11 -35.5t-31 -15.5q-17 0 -17 14q0 5 9 24t9 35q0 59 -95 59q-55 0 -110 -30t-102 -81t-85.5 -110t-70.5 -126q34 20 57 32t66.5 25t86.5 13q72 0 111.5 -27t39.5 -81q0 -53 -29.5 -111.5t-77 -106t-113 -78.5t-131.5 -31
q-135 0 -135 126q0 64 41.5 163.5t107.5 195.5t160.5 165.5t187.5 69.5zM492 417q-41 0 -86 -14t-67.5 -25.5t-58.5 -33.5q-75 -158 -75 -248q0 -98 94 -98q56 0 113 34.5t98 85t67 109t26 105.5q0 85 -111 85z" />
    <glyph glyph-name="seven.osf" horiz-adv-x="550" 
d="M739 510h9q-55 -60 -147.5 -146l-156.5 -147.5t-141 -164t-132 -220.5q-20 -42 -45 -42q-14 0 -14 13q0 11 7 26q38 81 124.5 184.5t167.5 180.5l171 160.5t116 111.5q-66 -46 -134 -46q-49 0 -118.5 20t-98.5 20q-43 0 -74.5 -23t-44.5 -51l-15 -33h-8l68 147h8l-40 -85
q27 46 77 70.5t105 24.5q41 0 115 -27.5t112 -27.5q41 0 89 55z" />
    <glyph glyph-name="eight.osf" horiz-adv-x="590" 
d="M758 605q0 -75 -65.5 -130t-199.5 -99q4 -4 11 -12q34 -37 50.5 -57t33.5 -53t17 -62q0 -81 -82 -141.5t-213 -60.5q-86 0 -129.5 35t-43.5 85q0 140 307 257q-81 90 -81 153q0 82 64.5 136t188.5 54q69 0 105.5 -30t36.5 -75zM489 382q113 36 172.5 99t59.5 129
q0 47 -32.5 69.5t-74.5 22.5q-99 0 -155 -45.5t-56 -113.5q0 -41 22 -78t64 -83zM312 -2q65 0 116.5 17.5t80 44.5t43 55t14.5 55q0 15 -3 29t-11.5 30l-14 26t-20 28l-20.5 25t-25 27.5t-23 25.5q-57 -24 -102 -49t-87 -57.5t-65 -73t-23 -85.5q0 -41 35.5 -69.5
t104.5 -28.5z" />
    <glyph glyph-name="nine.osf" horiz-adv-x="590" 
d="M528 510q136 0 136 -126q0 -51 -25.5 -126t-73.5 -156t-108 -151t-137.5 -115.5t-153.5 -45.5q-60 0 -96 27t-36 62q0 20 11.5 35.5t31.5 15.5q16 0 16 -13q0 -4 -8 -24t-8 -37q0 -58 93 -58q106 0 203 101.5t167 247.5q-37 -22 -58.5 -33t-66 -25t-87.5 -14
q-72 0 -111.5 27t-39.5 81q0 53 29.5 111.5t77 106t113 78.5t131.5 31zM544 156q75 158 75 249q0 97 -95 97q-73 0 -145.5 -57t-115 -134.5t-42.5 -142.5q0 -85 111 -85q91 0 212 73z" />
    <glyph glyph-name="zero.subs" horiz-adv-x="334" 
d="M286 255q77 0 77 -73q0 -53 -32.5 -119t-91 -117t-121.5 -51q-77 0 -77 73q0 53 32.5 119t91 117t121.5 51zM284 251q-50 0 -101.5 -60t-81 -130.5t-29.5 -113.5q0 -48 48 -48q50 0 101.5 60t81 130.5t29.5 113.5q0 48 -48 48z" />
    <glyph glyph-name="one.subs" horiz-adv-x="195" 
d="M237 255l-157 -336q-5 -10 -3.5 -12.5t11.5 -2.5h37l-2 -4h-145l2 4h38q10 0 14 2.5t8 12.5l139 297q4 8 2 10.5t-12 1.5q-14 -2 -39 -2l2 4q73 0 101 25h4z" />
    <glyph glyph-name="two.subs" horiz-adv-x="285" 
d="M252 255q79 0 79 -53q0 -20 -7 -39t-26.5 -40.5t-36 -36.5t-55 -41l-62.5 -41.5l-77 -48.5l-26 -16h115q36 0 52 7t28 32l6 13h4l-43 -91h-225l2 4l87 55q228 139 228 253q0 39 -45 39q-26 0 -45 -11t-25 -20t-14 -24q-7 -18 -27 -18q-12 0 -12 10q0 20 41.5 43.5
t83.5 23.5z" />
    <glyph glyph-name="three.subs" horiz-adv-x="286" 
d="M249 255q84 0 84 -49q0 -45 -49.5 -80t-114.5 -44q36 -3 63 -18t27 -44q0 -48 -53.5 -86.5t-124.5 -38.5q-34 0 -54.5 14t-20.5 32q0 11 8 21t21 10t13 -10q0 -3 -5 -15.5t-5 -20.5q0 -27 45 -27q60 0 99 43t39 88q0 48 -75 50q-7 -1 -15.5 -2.5t-12.5 -1.5q-5 0 -5 3
q0 8 11 8q3 0 10 -1.5t14 -1.5q62 1 106 40t44 87q0 40 -51 40q-26 0 -44 -11t-23.5 -19.5t-13.5 -24.5q-7 -18 -27 -18q-12 0 -12 10q0 20 40 43.5t82 23.5z" />
    <glyph glyph-name="four.subs" 
d="M212 -2h53l-2 -4h-53l-35 -75q-4 -10 -4 -11q0 -4 12 -4h37l-2 -4h-145l2 4h38q10 0 14 2.5t8 12.5l35 75h-157l2 4l313 257h4zM172 -2l94 201l-245 -201h151z" />
    <glyph glyph-name="five.subs" 
d="M362 259h4q-26 -56 -89 -56q-20 0 -56.5 5t-53.5 5l-72 -135q48 27 90 27q39 0 61 -14.5t22 -42.5q0 -59 -56.5 -106t-130.5 -47q-34 0 -54.5 14t-20.5 32q0 11 8 21t21 10t13 -10q0 -4 -5 -17t-5 -19q0 -27 45 -27q61 0 104.5 54.5t43.5 105.5q0 42 -50 42
q-46 0 -91 -31h-4l77 143l20 37q25 0 73 -8.5t65 -8.5q29 0 41 26z" />
    <glyph glyph-name="six.subs" horiz-adv-x="308" 
d="M291 255q30 0 48.5 -13.5t18.5 -31.5q0 -12 -8.5 -22t-21.5 -10q-12 0 -12 10q0 3 6.5 17.5t6.5 22.5q0 23 -40 23q-49 0 -95 -49t-81 -121q52 33 97 33q80 0 80 -56t-56.5 -109.5t-126.5 -53.5q-72 0 -72 67q0 48 34 115.5t95.5 122.5t126.5 55zM208 110q-45 0 -98 -34
q-42 -89 -42 -135q0 -42 41 -42q52 0 99 62.5t47 111.5q0 37 -47 37z" />
    <glyph glyph-name="seven.subs" horiz-adv-x="284" 
d="M379 255h4q-28 -31 -92 -88.5t-110 -112.5t-81 -131q-13 -28 -33 -28q-12 0 -12 11q0 7 4 15q21 45 77 103.5t128 122t89 81.5q-43 -32 -80 -32q-25 0 -60 11t-49 11q-19 0 -33.5 -10.5t-20.5 -23.5l-8 -16h-4l39 82h4l-24 -52q31 57 96 57q25 0 63 -16t55 -16
q19 0 48 32z" />
    <glyph glyph-name="eight.subs" horiz-adv-x="295" 
d="M339 208q0 -73 -137 -118l26.5 -29.5t17 -26t9.5 -32.5q0 -45 -43 -75.5t-116 -30.5q-87 0 -87 50q0 40 45 76.5t104 57.5q-37 37 -37 71q0 43 39 74t106 31q73 0 73 -48zM201 92q47 15 77.5 52t30.5 70q0 19 -13 28.5t-32 9.5q-50 0 -78 -23.5t-28 -60.5q0 -31 43 -76z
M98 -100q55 0 88 26.5t33 64.5q0 8 -3 16.5t-6 14.5t-10.5 15l-11 13t-14 14l-13.5 13q-54 -24 -88 -60t-34 -76q0 -41 59 -41z" />
    <glyph glyph-name="nine.subs" horiz-adv-x="308" 
d="M271 255q72 0 72 -67q0 -48 -34 -115.5t-95.5 -122.5t-126.5 -55q-30 0 -48.5 13.5t-18.5 31.5q0 12 8.5 22t21.5 10q12 0 12 -11q0 -3 -6 -17t-6 -22q0 -23 39 -23q49 0 95 49t81 121q-52 -33 -97 -33q-80 0 -80 56t56.5 109.5t126.5 53.5zM268 74q42 89 42 135
q0 42 -41 42q-52 0 -98.5 -62t-46.5 -111q0 -38 46 -38q45 0 98 34z" />
    <glyph glyph-name="zero.sups" horiz-adv-x="334" 
d="M542 805q78 0 78 -73q0 -50 -32 -116t-91 -118.5t-122 -52.5q-78 0 -78 74q0 36 20 85t52 94t78.5 76t94.5 31zM541 801q-50 0 -102 -60t-81.5 -130.5t-29.5 -112.5q0 -49 48 -49q38 0 78.5 36.5t69 86t47 100.5t18.5 81q0 48 -48 48z" />
    <glyph glyph-name="four.sups" 
d="M470 549h52l-2 -4h-52l-35 -75q-4 -10 -4 -11q0 -4 12 -4h37l-2 -4h-145l2 4h38q10 0 14 2.5t8 12.5l35 75h-158l2 4l314 257h4zM430 549l95 202l-246 -202h151z" />
    <glyph glyph-name="five.sups" 
d="M618 809h4q-26 -56 -89 -56q-20 0 -56.5 5t-53.5 5l-72 -135q48 27 90 27q39 0 61 -14.5t22 -42.5q0 -59 -56.5 -106t-130.5 -47q-34 0 -54.5 14t-20.5 32q0 11 8 21t21 10t13 -10q0 -4 -5 -17t-5 -19q0 -27 45 -27q61 0 104.5 54.5t43.5 105.5q0 42 -50 42
q-46 0 -91 -31h-4l77 143l20 37q25 0 73 -8.5t65 -8.5q29 0 41 26z" />
    <glyph glyph-name="six.sups" horiz-adv-x="308" 
d="M547 805q30 0 48.5 -13.5t18.5 -31.5q0 -12 -8.5 -22t-21.5 -10q-12 0 -12 10q0 3 6.5 17.5t6.5 22.5q0 23 -40 23q-49 0 -95 -49t-81 -121q52 33 97 33q80 0 80 -56t-56.5 -109.5t-126.5 -53.5q-72 0 -72 67q0 48 34 115.5t95.5 122.5t126.5 55zM464 660q-45 0 -98 -34
q-42 -89 -42 -135q0 -42 41 -42q52 0 99 62.5t47 111.5q0 37 -47 37z" />
    <glyph glyph-name="seven.sups" horiz-adv-x="284" 
d="M636 805h4q-28 -31 -92 -88.5t-110 -112.5t-81 -131q-13 -28 -33 -28q-12 0 -12 11q0 7 4 15q21 45 77 103.5t128 122t89 81.5q-43 -32 -80 -32q-25 0 -60 11t-49 11q-19 0 -33.5 -10.5t-20.5 -23.5l-8 -16h-4l39 82h4l-24 -52q31 57 96 57q25 0 63 -16t55 -16
q19 0 48 32z" />
    <glyph glyph-name="eight.sups" horiz-adv-x="295" 
d="M599 758q0 -73 -137 -118l26.5 -29.5t17 -26t9.5 -32.5q0 -45 -43 -75.5t-116 -30.5q-87 0 -87 50q0 40 45 76.5t104 57.5q-37 37 -37 71q0 43 39 74t106 31q73 0 73 -48zM461 642q47 15 77.5 52t30.5 70q0 19 -13 28.5t-32 9.5q-50 0 -78 -23.5t-28 -60.5q0 -31 43 -76z
M358 450q55 0 88 26.5t33 64.5q0 8 -3 16.5t-6 14.5t-10.5 15l-11 13t-14 14l-13.5 13q-54 -24 -88 -60t-34 -76q0 -41 59 -41z" />
    <glyph glyph-name="nine.sups" horiz-adv-x="308" 
d="M527 805q72 0 72 -67q0 -48 -34 -115.5t-95.5 -122.5t-126.5 -55q-30 0 -48.5 13.5t-18.5 31.5q0 12 8.5 22t21.5 10q12 0 12 -10q0 -2 -6 -17t-6 -23q0 -23 39 -23q49 0 95 49t81 121q-52 -33 -97 -33q-80 0 -80 56t56.5 109.5t126.5 53.5zM524 624q42 89 42 135
q0 42 -41 42q-52 0 -98.5 -62t-46.5 -111q0 -38 46 -38q45 0 98 34z" />
    <glyph glyph-name="zero.tf" horiz-adv-x="600" 
d="M631 710q138 0 138 -129q0 -56 -23.5 -132t-68.5 -155.5t-101.5 -148t-131 -112t-149.5 -43.5q-139 0 -139 128q0 71 38.5 170.5t100 194t152.5 161t184 66.5zM627 702q-55 0 -112 -34.5t-103.5 -89t-87.5 -122.5t-69 -135.5t-44.5 -126.5t-16.5 -97q0 -99 105 -99
q55 0 112 34.5t103.5 89t87.5 122.5t69 135.5t44.5 126.5t16.5 97q0 99 -105 99z" />
    <glyph glyph-name="one.tf" horiz-adv-x="600" 
d="M656 710l-313 -672q-7 -14 -7 -21q0 -9 23 -9h130l-4 -8h-370l4 8h130q20 0 27.5 5.5t16.5 24.5l283 607q4 8 4 15q0 11 -23 7q-35 -5 -133 -5l3 8q101 0 148 8.5t73 31.5h8z" />
    <glyph glyph-name="two.tf" horiz-adv-x="600" 
d="M621 710q69 0 107.5 -26.5t38.5 -78.5q0 -110 -126.5 -231.5t-402.5 -285.5l-64 -38h246q62 0 93 15t56 69l14 30h8l-76 -164h-430l4 8l148 87q171 101 282.5 199.5t157 176t45.5 145.5q0 86 -105 86q-40 0 -73 -10.5t-53 -28t-31.5 -32t-19.5 -30.5q-16 -31 -39 -31
q-17 0 -17 14q0 34 77.5 80t159.5 46z" />
    <glyph glyph-name="three.tf" horiz-adv-x="600" 
d="M608 710q73 0 114.5 -25t41.5 -72q0 -87 -97 -161.5t-223 -89.5q70 -5 120.5 -36t50.5 -86q0 -95 -103 -172.5t-240 -77.5q-67 0 -106.5 27.5t-39.5 63.5q0 20 11 34.5t31 14.5q16 0 16 -13q0 -3 -7.5 -23t-7.5 -32q0 -64 107 -64q65 0 122 25t93 63.5t56.5 82t20.5 83.5
q0 30 -15.5 52t-42.5 33t-54.5 16t-60.5 5q-13 -1 -28 -3.5t-21 -2.5q-9 0 -9 6q0 14 18 14q6 0 18.5 -2.5t25.5 -3.5q129 2 222.5 79t93.5 172q0 39 -27.5 62t-83.5 23q-75 0 -117.5 -32.5t-59.5 -69.5l-3 -5q-12 -25 -36 -25q-17 0 -17 14q0 34 77.5 80t159.5 46z" />
    <glyph glyph-name="four.tf" horiz-adv-x="600" 
d="M527 196h109l-3 -8h-110l-70 -150q-7 -14 -7 -21q0 -9 23 -9h80l-4 -8h-270l4 8h80q20 0 27.5 5.5t16.5 24.5l70 150h-330l3 8l612 514h8zM477 196l204 440l-523 -440h319z" />
    <glyph glyph-name="five.tf" horiz-adv-x="600" 
d="M823 720h8q-43 -90 -160 -90q-36 0 -107 10t-101 10l-158 -292q100 52 177 52q73 0 113 -28t40 -82q0 -117 -109.5 -213.5t-250.5 -96.5q-67 0 -106.5 27.5t-39.5 63.5q0 20 11 34.5t31 14.5q16 0 16 -13q0 -4 -7.5 -22.5t-7.5 -32.5q0 -64 107 -64q68 0 128.5 33.5
t99 83t61 103t22.5 96.5q0 88 -111 88q-83 0 -181 -57h-8l191 355q41 0 135 -17.5t132 -17.5q50 0 75 55z" />
    <glyph glyph-name="six.tf" horiz-adv-x="600" 
d="M662 710q60 0 96 -27t36 -62q0 -20 -11 -35.5t-31 -15.5q-17 0 -17 14q0 5 9 24t9 35q0 59 -95 59q-55 0 -110 -30t-102 -81t-85.5 -110t-70.5 -126q34 20 57 32t66.5 25t86.5 13q72 0 111.5 -27t39.5 -81q0 -53 -29.5 -111.5t-77 -106t-113 -78.5t-131.5 -31
q-135 0 -135 126q0 64 41.5 163.5t107.5 195.5t160.5 165.5t187.5 69.5zM497 417q-41 0 -86 -14t-67.5 -25.5t-58.5 -33.5q-75 -158 -75 -248q0 -98 94 -98q56 0 113 34.5t98 85t67 109t26 105.5q0 85 -111 85z" />
    <glyph glyph-name="seven.tf" horiz-adv-x="600" 
d="M857 710h9q-55 -61 -147 -146.5l-156.5 -147t-141.5 -164t-132 -220.5q-20 -42 -45 -42q-14 0 -14 13q0 10 8 26q38 81 124 184.5t167 180.5l171 160.5t116 111.5q-66 -46 -134 -46q-49 0 -118.5 20t-98.5 20q-43 0 -74 -23t-45 -51l-15 -33h-8l68 147h8l-39 -85
q27 46 76.5 70.5t104.5 24.5q41 0 115 -27.5t112 -27.5q41 0 89 55z" />
    <glyph glyph-name="eight.tf" horiz-adv-x="600" 
d="M758 605q0 -75 -65.5 -130t-199.5 -99q4 -4 11 -12q34 -37 50.5 -57t33.5 -53t17 -62q0 -81 -82 -141.5t-213 -60.5q-86 0 -129.5 35t-43.5 85q0 140 307 257q-81 90 -81 153q0 82 64.5 136t188.5 54q69 0 105.5 -30t36.5 -75zM489 382q113 36 172.5 99t59.5 129
q0 47 -32.5 69.5t-74.5 22.5q-99 0 -155 -45.5t-56 -113.5q0 -41 22 -78t64 -83zM312 -2q65 0 116.5 17.5t80 44.5t43 55t14.5 55q0 15 -3 29t-11.5 30l-14 26t-20 28l-20.5 25t-25 27.5t-23 25.5q-57 -24 -102 -49t-87 -57.5t-65 -73t-23 -85.5q0 -41 35.5 -69.5
t104.5 -28.5z" />
    <glyph glyph-name="nine.tf" horiz-adv-x="600" 
d="M621 710q136 0 136 -126q0 -51 -25.5 -126t-73.5 -156t-108 -151t-137.5 -115.5t-153.5 -45.5q-60 0 -96 27t-36 62q0 20 11.5 35.5t31.5 15.5q16 0 16 -13q0 -4 -8 -24t-8 -37q0 -58 93 -58q106 0 203 101.5t167 247.5q-37 -22 -58.5 -33t-66 -25t-87.5 -14
q-72 0 -111.5 27t-39.5 81q0 53 29.5 111.5t77 106t113 78.5t131.5 31zM637 356q75 158 75 249q0 97 -95 97q-73 0 -145.5 -57t-115 -134.5t-42.5 -142.5q0 -85 111 -85q91 0 212 73z" />
    <glyph glyph-name="zero.tosf" horiz-adv-x="600" 
d="M538 510q80 0 117 -34t37 -91q0 -43 -18 -95.5t-53 -105.5t-82 -96.5t-111 -70.5t-133 -27q-154 0 -154 124q0 54 29.5 121.5t79 129t126.5 103.5t162 42zM534 502q-60 0 -117 -30.5t-98.5 -78t-73 -103t-47 -106.5t-15.5 -88q0 -98 116 -98q76 0 145.5 46.5t112.5 112.5
t68.5 133t25.5 114q0 98 -117 98z" />
    <glyph glyph-name="one.tosf" horiz-adv-x="600" 
d="M563 510l-220 -472q-7 -14 -7 -21q0 -9 23 -9h130l-4 -8h-370l4 8h130q20 0 27.5 5.5t16.5 24.5l190 407q4 8 4 15q0 11 -23 7q-35 -5 -133 -5l3 8q101 0 148 8.5t73 31.5h8z" />
    <glyph glyph-name="two.tosf" horiz-adv-x="600" 
d="M528 510q161 0 161 -88q0 -87 -111 -166q-67 -47 -273 -148l-81 -40l-37 -18h233q62 0 93 15t56 69l14 30h8l-76 -164h-430l4 8l134 67l148.5 76.5t114.5 67t87.5 67.5t49 66.5t18.5 74.5q0 75 -117 75q-76 0 -119 -32.5t-59 -70.5q-3 -9 -13.5 -19t-24.5 -10
q-17 0 -17 14q0 34 77.5 80t159.5 46z" />
    <glyph glyph-name="three.tosf" horiz-adv-x="600" 
d="M515 510q73 0 114.5 -25t41.5 -72q0 -87 -97 -161.5t-223 -89.5q70 -5 120.5 -36t50.5 -86q0 -95 -103 -172.5t-240 -77.5q-67 0 -106.5 27.5t-39.5 63.5q0 20 11 34.5t31 14.5q16 0 16 -13q0 -3 -7.5 -23t-7.5 -33q0 -63 107 -63q65 0 122 25t93 63t56.5 82t20.5 84
q0 30 -15.5 52t-42.5 33t-54.5 16t-60.5 5q-13 -1 -28 -3.5t-21 -2.5q-9 0 -9 6q0 14 18 14q6 0 18.5 -2.5t25.5 -3.5q129 2 222.5 79t93.5 172q0 39 -27.5 62t-83.5 23q-75 0 -117.5 -32.5t-59.5 -69.5l-3 -5q-12 -25 -36 -25q-17 0 -17 14q0 34 77.5 80t159.5 46z" />
    <glyph glyph-name="four.tosf" horiz-adv-x="600" 
d="M440 7h109l-3 -8h-110l-75 -161q-8 -16 -8 -21q0 -9 24 -9h80l-4 -8h-270l4 8h80q19 0 26.5 5t17.5 25l75 161h-330l3 8l607 503h8zM390 7l200 430l-519 -430h319z" />
    <glyph glyph-name="five.tosf" horiz-adv-x="600" 
d="M730 520h8q-43 -90 -160 -90q-36 0 -107 10t-101 10l-158 -292q100 52 177 52q73 0 113 -28t40 -82q0 -117 -109.5 -213.5t-250.5 -96.5q-67 0 -106.5 27.5t-39.5 63.5q0 20 11 34.5t31 14.5q16 0 16 -13q0 -4 -7.5 -22.5t-7.5 -33.5q0 -63 107 -63q68 0 128.5 33.5
t99 83t61 103t22.5 96.5q0 88 -111 88q-83 0 -181 -57h-8l191 355q41 0 135.5 -17.5t131.5 -17.5q50 0 75 55z" />
    <glyph glyph-name="six.tosf" horiz-adv-x="600" 
d="M662 710q60 0 96 -27t36 -62q0 -20 -11 -35.5t-31 -15.5q-17 0 -17 14q0 5 9 24t9 35q0 59 -95 59q-55 0 -110 -30t-102 -81t-85.5 -110t-70.5 -126q34 20 57 32t66.5 25t86.5 13q72 0 111.5 -27t39.5 -81q0 -53 -29.5 -111.5t-77 -106t-113 -78.5t-131.5 -31
q-135 0 -135 126q0 64 41.5 163.5t107.5 195.5t160.5 165.5t187.5 69.5zM497 417q-41 0 -86 -14t-67.5 -25.5t-58.5 -33.5q-75 -158 -75 -248q0 -98 94 -98q56 0 113 34.5t98 85t67 109t26 105.5q0 85 -111 85z" />
    <glyph glyph-name="seven.tosf" horiz-adv-x="600" 
d="M764 510h9q-55 -60 -147.5 -146l-156.5 -147.5t-141 -164t-132 -220.5q-20 -42 -45 -42q-14 0 -14 13q0 11 7 26q38 81 124.5 184.5t167.5 180.5l171 160.5t116 111.5q-66 -46 -134 -46q-49 0 -118.5 20t-98.5 20q-43 0 -74.5 -23t-44.5 -51l-15 -33h-8l68 147h8l-40 -85
q27 46 77 70.5t105 24.5q40 0 115 -27.5t112 -27.5q41 0 89 55z" />
    <glyph glyph-name="eight.tosf" horiz-adv-x="600" 
d="M758 605q0 -75 -65.5 -130t-199.5 -99q4 -4 11 -12q34 -37 50.5 -57t33.5 -53t17 -62q0 -81 -82 -141.5t-213 -60.5q-86 0 -129.5 35t-43.5 85q0 140 307 257q-81 90 -81 153q0 82 64.5 136t188.5 54q69 0 105.5 -30t36.5 -75zM489 382q113 36 172.5 99t59.5 129
q0 47 -32.5 69.5t-74.5 22.5q-99 0 -155 -45.5t-56 -113.5q0 -41 22 -78t64 -83zM312 -2q65 0 116.5 17.5t80 44.5t43 55t14.5 55q0 15 -3 29t-11.5 30l-14 26t-20 28l-20.5 25t-25 27.5t-23 25.5q-57 -24 -102 -49t-87 -57.5t-65 -73t-23 -85.5q0 -41 35.5 -69.5
t104.5 -28.5z" />
    <glyph glyph-name="nine.tosf" horiz-adv-x="600" 
d="M531 510q136 0 136 -126q0 -51 -25.5 -126t-73.5 -156t-108 -151t-137.5 -115.5t-153.5 -45.5q-60 0 -96 27t-36 62q0 20 11.5 35.5t31.5 15.5q16 0 16 -13q0 -4 -8.5 -24t-8.5 -37q0 -58 94 -58q73 0 146 53.5t126.5 128.5t96.5 167q-35 -21 -57 -33t-66.5 -25.5
t-87.5 -13.5q-72 0 -111.5 27t-39.5 81q0 53 29.5 111.5t77 106t113 78.5t131.5 31zM547 156q74 159 74 249q0 97 -94 97q-73 0 -145.5 -57t-115 -134.5t-42.5 -142.5q0 -85 111 -85q41 0 85.5 13.5t67.5 26z" />
    <glyph glyph-name="zero.dnom" horiz-adv-x="334" 
d="M333 355q77 0 77 -73q0 -53 -32.5 -119t-91 -117t-121.5 -51q-77 0 -77 73q0 53 32.5 119t91 117t121.5 51zM331 351q-50 0 -101.5 -60t-81 -130.5t-29.5 -112.5q0 -49 48 -49q50 0 101.5 60t81 130.5t29.5 113.5q0 48 -48 48z" />
    <glyph glyph-name="one.dnom" horiz-adv-x="195" 
d="M284 355l-157 -336q-5 -10 -3.5 -12.5t11.5 -2.5h37l-2 -4h-145l2 4h38q10 0 14 2.5t8 12.5l138 297q4 8 2.5 10.5t-11.5 1.5q-14 -2 -39 -2l2 4q73 0 101 25h4z" />
    <glyph glyph-name="two.dnom" horiz-adv-x="285" 
d="M299 355q79 0 79 -53q0 -20 -7 -39t-26.5 -40.5t-36 -36.5t-55 -41l-62.5 -41.5l-77 -48.5l-26 -16h115q36 0 52 7t28 32l6 13h4l-43 -91h-225l2 4l87 55q228 139 228 253q0 39 -45 39q-26 0 -45 -11t-25 -20t-14 -24q-7 -18 -27 -18q-12 0 -12 10q0 20 41.5 43.5
t83.5 23.5z" />
    <glyph glyph-name="three.dnom" horiz-adv-x="286" 
d="M296 355q84 0 84 -49q0 -45 -49.5 -80t-114.5 -44q36 -3 63 -18t27 -44q0 -48 -53.5 -86.5t-124.5 -38.5q-34 0 -54.5 14t-20.5 32q0 11 8 21t21 10t13 -10q0 -3 -5 -15.5t-5 -20.5q0 -27 45 -27q60 0 99 43t39 88q0 48 -75 50q-7 -1 -15.5 -2.5t-12.5 -1.5q-5 0 -5 3
q0 8 11 8q3 0 10 -1.5t14 -1.5q62 1 106 40t44 87q0 40 -51 40q-26 0 -44 -11t-23.5 -19.5t-13.5 -24.5q-7 -18 -27 -18q-12 0 -12 10q0 20 40 43.5t82 23.5z" />
    <glyph glyph-name="four.dnom" 
d="M260 99h52l-2 -4h-52l-35 -75q-4 -10 -4 -11q0 -4 12 -4h37l-2 -4h-145l2 4h38q10 0 14 2.5t8 12.5l35 75h-158l2 4l314 257h4zM220 99l95 202l-246 -202h151z" />
    <glyph glyph-name="five.dnom" 
d="M409 359h4q-26 -56 -89 -56q-20 0 -56.5 5t-53.5 5l-72 -135q48 27 90 27q38 0 60.5 -14.5t22.5 -42.5q0 -59 -56.5 -106t-130.5 -47q-34 0 -54.5 14t-20.5 32q0 11 8 21t21 10t13 -10q0 -4 -5 -17t-5 -19q0 -27 45 -27q61 0 104.5 54.5t43.5 105.5q0 42 -50 42
q-46 0 -91 -31h-4l77 143l20 37q25 0 73 -8.5t65 -8.5q29 0 41 26z" />
    <glyph glyph-name="six.dnom" horiz-adv-x="308" 
d="M337 355q30 0 48.5 -13.5t18.5 -31.5q0 -12 -8.5 -22t-21.5 -10q-12 0 -12 10q0 3 6.5 17.5t6.5 22.5q0 23 -40 23q-49 0 -95 -49t-81 -121q52 33 97 33q80 0 80 -56t-56.5 -109.5t-126.5 -53.5q-72 0 -72 67q0 48 34 115.5t95.5 122.5t126.5 55zM254 210q-45 0 -98 -34
q-42 -89 -42 -135q0 -42 41 -42q52 0 99 62.5t47 111.5q0 37 -47 37z" />
    <glyph glyph-name="seven.dnom" horiz-adv-x="284" 
d="M426 355h4q-28 -31 -92 -88.5t-110 -112.5t-81 -131q-13 -28 -33 -28q-12 0 -12 11q0 7 4 15q21 45 77 103.5t128 122t89 81.5q-43 -32 -80 -32q-25 0 -60 11t-49 11q-19 0 -33.5 -10.5t-20.5 -23.5l-8 -16h-4l39 82h4l-24 -52q31 57 96 57q25 0 63 -16t55 -16
q19 0 48 32z" />
    <glyph glyph-name="eight.dnom" horiz-adv-x="295" 
d="M389 308q0 -73 -137 -118l26.5 -29.5t17 -26t9.5 -32.5q0 -45 -43 -75.5t-116 -30.5q-87 0 -87 50q0 40 45 76.5t104 57.5q-37 37 -37 71q0 43 39 74t106 31q73 0 73 -48zM251 192q47 15 77.5 52t30.5 70q0 19 -13 28.5t-32 9.5q-50 0 -78 -23.5t-28 -60.5q0 -31 43 -76z
M148 0q55 0 88 26.5t33 64.5q0 8 -3 16.5t-6 14.5t-10.5 15l-11 13t-14 14l-13.5 13q-54 -24 -88 -60t-34 -76q0 -41 59 -41z" />
    <glyph glyph-name="nine.dnom" horiz-adv-x="308" 
d="M318 356q71 0 71 -67q0 -35 -21 -84.5t-54 -96.5t-82 -80t-98 -33q-30 0 -48.5 14t-18.5 32q0 12 8 22t21 10t13 -11q0 -3 -6.5 -17t-6.5 -22q0 -24 40 -24q49 0 95 49.5t81 121.5q-52 -33 -97 -33q-80 0 -80 56t56.5 109.5t126.5 53.5zM315 175q42 89 42 135
q0 42 -41 42q-52 0 -99 -62.5t-47 -111.5q0 -37 47 -37q45 0 98 34z" />
    <glyph glyph-name="zero.numr" horiz-adv-x="334" 
d="M496 705q77 0 77 -73q0 -53 -32.5 -119t-91 -117t-121.5 -51q-77 0 -77 73q0 53 32.5 119t91 117t121.5 51zM494 701q-50 0 -101.5 -60t-81 -130.5t-29.5 -112.5q0 -49 48 -49q50 0 101.5 60t81 130.5t29.5 113.5q0 48 -48 48z" />
    <glyph glyph-name="one.numr" horiz-adv-x="195" 
d="M447 705l-157 -336q-5 -10 -3.5 -12.5t11.5 -2.5h37l-2 -4h-145l2 4h38q10 0 14 2.5t8 12.5l139 297q4 8 2 10.5t-12 1.5q-14 -2 -39 -2l2 4q73 0 101 25h4z" />
    <glyph glyph-name="two.numr" horiz-adv-x="285" 
d="M463 705q79 0 79 -53q0 -24 -13.5 -49t-31 -44t-58.5 -48.5t-70 -48l-92 -57.5l-25 -16h115q36 0 52 7t28 32l6 13h4l-43 -91h-225l2 4l87 55q116 70 171.5 135t55.5 118q0 39 -44 39q-26 0 -45 -11t-25 -20t-14 -24q-7 -18 -27 -18q-12 0 -12 10q0 20 41.5 43.5
t83.5 23.5z" />
    <glyph glyph-name="three.numr" horiz-adv-x="286" 
d="M459 705q84 0 84 -49q0 -45 -49.5 -80t-114.5 -44q36 -3 63 -18t27 -44q0 -48 -53.5 -86.5t-124.5 -38.5q-34 0 -54.5 14t-20.5 32q0 11 8 21t21 10t13 -10q0 -3 -5 -15.5t-5 -20.5q0 -27 45 -27q60 0 99 43t39 88q0 48 -75 50q-7 -1 -15.5 -2.5t-12.5 -1.5q-5 0 -5 3
q0 8 11 8q3 0 10 -1.5t14 -1.5q62 1 106 40t44 87q0 40 -51 40q-26 0 -44 -11t-23.5 -19.5t-13.5 -24.5q-7 -18 -27 -18q-12 0 -12 10q0 20 40 43.5t82 23.5z" />
    <glyph glyph-name="four.numr" 
d="M423 449h52l-2 -4h-52l-35 -75q-4 -10 -4 -11q0 -4 12 -4h37l-2 -4h-145l2 4h38q10 0 14 2.5t8 12.5l35 75h-158l2 4l314 257h4zM383 449l95 202l-246 -202h151z" />
    <glyph glyph-name="five.numr" 
d="M572 709h4q-26 -56 -89 -56q-20 0 -56.5 5t-53.5 5l-72 -135q48 27 90 27q39 0 61 -14.5t22 -42.5q0 -59 -56.5 -106t-130.5 -47q-34 0 -54.5 14t-20.5 32q0 11 8 21t21 10t13 -10q0 -4 -5 -17t-5 -19q0 -27 45 -27q61 0 104.5 54.5t43.5 105.5q0 42 -50 42
q-46 0 -91 -31h-4l77 143l20 37q25 0 73 -8.5t65 -8.5q29 0 41 26z" />
    <glyph glyph-name="six.numr" horiz-adv-x="308" 
d="M501 705q30 0 48.5 -13.5t18.5 -31.5q0 -12 -8.5 -22t-21.5 -10q-12 0 -12 10q0 3 6.5 17.5t6.5 22.5q0 23 -40 23q-49 0 -95 -49t-81 -121q52 33 97 33q80 0 80 -56t-56.5 -109.5t-126.5 -53.5q-72 0 -72 67q0 48 34 115.5t95.5 122.5t126.5 55zM418 560q-45 0 -98 -34
q-42 -89 -42 -135q0 -42 41 -42q52 0 99 62.5t47 111.5q0 37 -47 37z" />
    <glyph glyph-name="seven.numr" horiz-adv-x="284" 
d="M589 705h4q-28 -31 -92 -88.5t-110 -112.5t-81 -131q-13 -28 -33 -28q-12 0 -12 11q0 7 4 15q21 45 77 103.5t128 122t89 81.5q-43 -32 -80 -32q-25 0 -60 11t-49 11q-19 0 -33.5 -10.5t-20.5 -23.5l-8 -16h-4l39 82h4l-24 -52q31 57 96 57q25 0 63 -16t55 -16
q19 0 48 32z" />
    <glyph glyph-name="eight.numr" horiz-adv-x="295" 
d="M551 658q0 -74 -136 -118q2 -2 7.5 -8.5t7.5 -8.5t7 -8t7 -9t6 -8t6 -8.5t4.5 -9t3.5 -9.5t2 -9t1 -10q0 -45 -43 -75.5t-116 -30.5q-87 0 -87 50q0 39 44.5 75.5t104.5 58.5q-37 37 -37 71q0 43 39 74t106 31q73 0 73 -48zM413 542q47 15 78 52t31 70q0 38 -46 38
q-50 0 -78 -23.5t-28 -60.5q0 -31 43 -76zM310 350q55 0 88 26.5t33 64.5q0 8 -3 16.5t-6 14.5t-10.5 15l-11 13t-14 14l-13.5 13q-54 -24 -88 -60t-34 -76q0 -41 59 -41z" />
    <glyph glyph-name="nine.numr" horiz-adv-x="308" 
d="M481 705q72 0 72 -67q0 -48 -34 -115.5t-95.5 -122.5t-126.5 -55q-30 0 -48.5 13.5t-18.5 31.5q0 12 8.5 22t21.5 10q12 0 12 -10q0 -2 -6 -16.5t-6 -23.5q0 -23 39 -23q49 0 95 49t81 121q-52 -33 -97 -33q-80 0 -80 56t56.5 109.5t126.5 53.5zM478 524q42 89 42 135
q0 42 -41 42q-52 0 -98.5 -62t-46.5 -111q0 -38 46 -38q45 0 98 34z" />
    <glyph glyph-name="emdash.cap" horiz-adv-x="640" 
d="M750 343h-540l6 12h540z" />
    <glyph glyph-name="endash.cap" horiz-adv-x="490" 
d="M600 343h-390l6 12h390z" />
    <glyph glyph-name="hyphen.cap" horiz-adv-x="390" 
d="M500 343h-290l6 12h290z" />
    <glyph glyph-name="softhyphen.cap" horiz-adv-x="390" 
d="M453 343h-290l6 12h290z" />
    <glyph glyph-name="guillemetleft.cap" horiz-adv-x="570" 
d="M569 555l-2 -4q-110 -121 -282 -202q97 -81 94 -202l-2 -4q-50 138 -176 203l3 6q185 65 365 203zM789 555l-2 -4q-110 -121 -282 -202q97 -81 94 -202l-2 -4q-50 138 -176 203l3 6q185 65 365 203z" />
    <glyph glyph-name="guillemetright.cap" horiz-adv-x="570" 
d="M297 551l2 4q51 -139 175 -203l-3 -6q-183 -64 -364 -203l2 4q108 120 282 202q-98 82 -94 202zM517 551l2 4q51 -139 175 -203l-3 -6q-183 -64 -364 -203l2 4q108 120 282 202q-98 82 -94 202z" />
    <glyph glyph-name="guilsinglleft.cap" horiz-adv-x="350" 
d="M569 555l-2 -4q-110 -121 -282 -202q97 -81 94 -202l-2 -4q-50 138 -176 203l3 6q185 65 365 203z" />
    <glyph glyph-name="guilsinglright.cap" horiz-adv-x="350" 
d="M297 551l2 4q51 -139 175 -203l-3 -6q-183 -64 -364 -203l2 4q108 120 282 202q-98 82 -94 202z" />
    <glyph glyph-name="AT" horiz-adv-x="870" 
d="M796 732q114 0 180.5 -52t66.5 -142q0 -91 -59 -186t-149 -156t-175 -61q-37 0 -59 13t-22 36q0 26 27 56q-104 -90 -179 -90q-69 0 -69 50q0 34 39.5 92t97.5 113t132.5 95.5t135.5 40.5q54 0 54 -41q0 -25 -22 -56l83 89h38l-276 -293q-31 -34 -31 -59q0 -37 57 -37
q81 0 167.5 60t143.5 152.5t57 179.5t-65 137.5t-177 50.5q-117 0 -233 -54t-199.5 -136t-135.5 -180.5t-52 -185.5q0 -92 61 -146t172 -54l-4 -8q-114 0 -175.5 55t-61.5 149q0 93 53 194t138 183.5t203 136.5t238 54zM760 534q-49 0 -117 -42.5t-123 -99.5t-94.5 -114
t-39.5 -86q0 -35 44 -35q96 0 230 143l95 102q22 23 37.5 50.5t15.5 45.5q0 36 -48 36z" />
    <glyph glyph-name="Exclamdown" 
d="M465 680q-14 0 -21 7.5t-7 17.5q0 18 15 31.5t36 13.5q27 0 27 -25q0 -18 -15.5 -31.5t-34.5 -13.5zM138 -10q-19 0 -19 16q0 10 51 107.5l124.5 238t110.5 218.5h8q-49 -105 -137 -321t-94 -229q-14 -30 -44 -30z" />
    <glyph glyph-name="Questiondown" horiz-adv-x="495" 
d="M625 680q-14 0 -21 7.5t-7 17.5q0 18 15 31.5t36 13.5q27 0 27 -25q0 -18 -15.5 -31.5t-34.5 -13.5zM258 -10q-65 0 -102.5 30t-37.5 80q0 60 39 114t98 96t120.5 81t116 86t74.5 93h12q-14 -38 -62.5 -82.5t-106 -87.5t-113.5 -90t-93.5 -107t-37.5 -122q0 -83 99 -83
q48 0 83.5 13.5t54 33t32 39t26.5 33t29 13.5t16 -13q0 -35 -81 -81t-166 -46z" />
    </font>
</defs>
</svg>
